»
»

Скачать фильм Замок на песке (1-4 серии из 4) (Алексей Гусев) / [2019, мелодрама, HDTVRip 720p] - торрент

Скачать торрент фильм можно, нажав на синюю кнопку ниже. Фильм доступен на нашем торрент-трекере бесплатно, без регистрации и смс.

Статистика раздачи
0 [ 0 b/s ] ↑ 4.6 GB ↓ 0 [ 0 b/s ]
Автор Сообщение
BLIZNEC W
2020-02-09 21:28
Замок на песке (1-4 серии из 4)
Замок на песке Страна: Украина
Перевод: не требуется
Формат: HDTVRip 720p, MKV, H.264, AC3
Режиссер: Алексей Гусев
Жанр: мелодрама
Продолжительность: 4 x ~ 00:45:00
Год выпуска: 2019

В ролях: Мария Аниканова, Алексей Зубков, Анна Кошмал, Юрий Фелипенко, Виктор Васильев (III), Владислав Писаренко, Александр Кобзарь, Игорь Пазыч, Елена Стефанская, Алина Гроссу, Владислав Мамчур, Сергей Калантай, Клавдия Дрозд, Дарья Лобода, Сергей Радченко (III), Егор Козлов, Анастасия Цымбалару, Дарья Егоркина, Олеся Островская, Юрий Гребельник, Татьяна Печёнкина, Александр Моисеенко, Лариса Уманцева, Татьяна Игнашкина, Леонид Захарченко, Кристина Сенер, Сергей Асовский, Дмитрий Гарбуз, Борис Книженко, Светлана Косолапова, Мария Груничева, Геннадий Свитыч, Елена Дудич, Дмитрий Оскин

Описание: В центре истории – Людмила и Александр. Он – медицинское светило, главврач клиники ЭКО, блестящий репродуктолог. Она – его правая рука, помощница и вдохновитель всех побед. Красавица-дочь Лиза – студентка-отличница и продолжатель медицинской династии, дом – полная чаша. Но однажды Людмила получает странное послание: фотографию могилы их студенческой подруги, погибшей 19 лет назад. После этого жизнь пары переворачивается: в их доме случается пожар, в клинике начинаются финансовые проблемы, а Людмила узнает об изменах мужа… Благополучная и красивая жизнь на деле оказывается лишь иллюзий. Но, быть может, на месте разрушенного «песочного» замка теперь получится построить что-то настоящее?

Рейтинг и доп. информация:


Видео: 1280х720, (16:9), 25 fps, AVC MPEG-4 (x264), High@L4.1 ~ 3500 kbps , 0.152 bit/pixel
Аудио: 48 kHz, AC3, 2/0 (L,R) ch, ~192 kbps
MediaInfo
Общее
Уникальный идентификатор : 208359888490500255112322597744561318123 (0x9CC0A7A3F11C8AB889DD00E9030B68EB)
Полное имя : C:\Zamok.na.peske.2019.HDTVRip.(720p).ExKinoRay\Zamok.na.peske.E01.2019.HDTVRip.(720p).ExKinoRay.mkv
Формат : Matroska
Версия формата : Version 4
Размер файла : 1,22 Гбайт
Продолжительность : 47 м. 15 с.
Общий поток : 3693 Кбит/сек
Дата кодирования : UTC 2020-02-09 16:10:56
Программа кодирования : mkvmerge v6.9.1 ('Blue Panther') 64bit built on Apr 18 2014 18:23:38
Библиотека кодирования : libebml v1.3.0 + libmatroska v1.4.1

Видео
Идентификатор : 1
Формат : AVC
Формат/Информация : Advanced Video Codec
Профиль формата : High@L4.1
Настройки формата : CABAC / 9 Ref Frames
Параметр CABAC формата : Да
Параметр RefFrames формата : 9 кадров
Идентификатор кодека : V_MPEG4/ISO/AVC
Продолжительность : 47 м. 15 с.
Битрейт : 3500 Кбит/сек
Ширина : 1280 пикселей
Высота : 720 пикселей
Соотношение сторон : 16:9
Режим частоты кадров : Постоянный
Частота кадров : 25,000 кадров/сек
Цветовое пространство : YUV
Субдискретизация насыщенности : 4:2:0
Битовая глубина : 8 бит
Тип развёртки : Прогрессивная
Бит/(Пиксели*Кадры) : 0.152
Размер потока : 1,13 Гбайт (93%)
Библиотека кодирования : x264 core 146 r2538 121396c
Настройки программы : cabac=1 / ref=9 / deblock=1:-3:-3 / analyse=0x3:0x113 / me=umh / subme=11 / psy=1 / psy_rd=1.00:0.20 / mixed_ref=1 / me_range=32 / chroma_me=1 / trellis=2 / 8x8dct=1 / cqm=0 / deadzone=21,11 / fast_pskip=1 / chroma_qp_offset=-3 / threads=24 / lookahead_threads=10 / sliced_threads=0 / nr=0 / decimate=0 / interlaced=0 / bluray_compat=0 / constrained_intra=0 / bframes=10 / b_pyramid=2 / b_adapt=2 / b_bias=0 / direct=3 / weightb=1 / open_gop=0 / weightp=2 / keyint=250 / keyint_min=25 / scenecut=40 / intra_refresh=0 / rc_lookahead=60 / rc=2pass / mbtree=1 / bitrate=3500 / ratetol=1.0 / qcomp=0.60 / qpmin=0 / qpmax=69 / qpstep=4 / cplxblur=20.0 / qblur=0.5 / vbv_maxrate=14000 / vbv_bufsize=14000 / nal_hrd=none / filler=0 / ip_ratio=1.40 / aq=3:1.40
Default : Нет
Forced : Нет
Цветовой диапазон : Limited
Основные цвета : BT.709
Характеристики трансфера : BT.709
Коэффициенты матрицы : BT.709

Аудио
Идентификатор : 2
Формат : AC-3
Формат/Информация : Audio Coding 3
Коммерческое название : Dolby Digital
Идентификатор кодека : A_AC3
Продолжительность : 47 м. 15 с.
Вид битрейта : Постоянный
Битрейт : 192 Кбит/сек
Каналы : 2 канала
ChannelLayout : L R
Частота : 48,0 КГц
Частота кадров : 31,250 кадров/сек (1536 SPF)
Метод сжатия : С потерями
Размер потока : 64,9 Мбайт (5%)
Язык : Russian
ServiceKind/String : Complete Main
Default : Да
Forced : Да

Информация о торренте:
Размер содержимого: 4.6 GB
Скачан: 454 раза
Статус: Проверен
Зарегистрирован на трекере: 2020-02-09 20:28
Скачать торрент


Поддержи раздачу — поставь лайк:
BLIZNEC W
2020-02-09 20:28
Интересного и приятного просмотра!!!

Мои раздачи
Писать комментарии на нашем торрент-трекере могут только зарегистрированные пользователи.
Зарегистрируйтесь или авторизируйтесь на сайте.