»
»

Скачать фильм Транссибирский экспресс (Эльдор Уразбаев) / [1977, боевик, драма, приключения, DVDRip-AVC] - торрент

Скачать бесплатный торрент фильм. Фильм доступен на нашем торрент-трекере бесплатно, без регистрации и смс.

Статистика раздачи
0 [ 0 b/s ] ↑ 1.2 GB ↓ 0 [ 0 b/s ]
Автор Сообщение
BLIZNEC W
2020-02-09 16:43
Транссибирский экспресс
Транссибирский экспресс Формат: DVDRip-AVC, MKV, H.264, AC3
Режиссер: Эльдор Уразбаев
Жанр: боевик, драма, приключения
Продолжительность: 01:25:48
Год выпуска: 1977

В ролях: Асанали Ашимов, Нонна Терентьева, Олег Табаков, Мен Дон Ук, Константин Григорьев, Олег Ли, Наталья Аринбасарова, Олег Видов, Вадим Захарченко

Описание: 1927 год. Дальний Восток. С провокационной целью убита дочь крупного японского промышленника Сайто, собирающегося начать торговые переговоры с Советской Россией. Несмотря на горечь утраты, Сайто не отступает от намеченных действий. Сев в транссибирский экспресс, он отравляется в Москву. А тем временем агенты иностранной разведки готовят на него покушение…

Рейтинг и доп. информация:


Видео: 680x572@726x572, (5:4), 25 fps, AVC MPEG-4 (x264), High@L3.1 ~ 1800 kbps , 0.185 bit/pixel
Аудио: 48 kHz, AAC, 2 ch (L R), ~ 192 Kbps avg
Доп. инфо
Видео кодировалось с применением шумодава.
MediaInfo
Общее
Уникальный идентификатор : 249125373814029972465829005099749127645 (0xBB6BCD3E684750238D27A8B178ACB5DD)
Полное имя : D:/Хранилище/Видео/Транссибирский экспресс/Транссибирский экспресс.mkv
Формат : Matroska
Версия формата : Version 4
Размер файла : 1,19 Гбайт
Продолжительность : 1 ч. 25 м.
Общий поток : 1992 Кбит/сек
Дата кодирования : UTC 2020-02-07 07:40:20
Программа кодирования : mkvmerge v43.0.0 ('The Quartermaster') 64-bit
Библиотека кодирования : libebml v1.3.10 + libmatroska v1.5.2
Обложка : Yes
Attachments : cover.jpg

Видео
Идентификатор : 1
Формат : AVC
Формат/Информация : Advanced Video Codec
Профиль формата : High@L3.1
Настройки формата : CABAC / 11 Ref Frames
Параметр CABAC формата : Да
Параметр RefFrames формата : 11 кадров
Идентификатор кодека : V_MPEG4/ISO/AVC
Продолжительность : 1 ч. 25 м.
Битрейт : 1800 Кбит/сек
Ширина : 680 пикселей
Высота : 572 пикселя
Соотношение сторон : 5:4
Соотношение сторон в оригинале : 5:4
Режим частоты кадров : Постоянный
Частота кадров : 25,000 кадров/сек
Цветовое пространство : YUV
Субдискретизация насыщенности : 4:2:0
Битовая глубина : 8 бит
Тип развёртки : Прогрессивная
Бит/(Пиксели*Кадры) : 0.185
Размер потока : 1,08 Гбайт (90%)
Библиотека кодирования : x264 core 157 r2935M 545de2f
Настройки программы : cabac=1 / ref=11 / deblock=1:0:0 / analyse=0x3:0x133 / me=tesa / subme=11 / psy=1 / psy_rd=1.00:0.00 / mixed_ref=1 / me_range=24 / chroma_me=1 / trellis=2 / 8x8dct=1 / cqm=0 / deadzone=21,11 / fast_pskip=0 / chroma_qp_offset=-2 / threads=18 / lookahead_threads=4 / sliced_threads=0 / nr=0 / decimate=1 / interlaced=0 / bluray_compat=0 / constrained_intra=0 / bframes=16 / b_pyramid=2 / b_adapt=2 / b_bias=0 / direct=3 / weightb=1 / open_gop=0 / weightp=2 / keyint=250 / keyint_min=25 / scenecut=40 / intra_refresh=0 / rc_lookahead=60 / rc=2pass / mbtree=1 / bitrate=1800 / ratetol=1.0 / qcomp=0.60 / qpmin=0 / qpmax=69 / qpstep=4 / cplxblur=20.0 / qblur=0.5 / ip_ratio=1.40 / aq=1:1.00
Default : Да
Forced : Нет
Цветовой диапазон : Limited
Коэффициенты матрицы : BT.470 System B/G

Аудио
Идентификатор : 2
Формат : AAC LC
Формат/Информация : Advanced Audio Codec Low Complexity
Идентификатор кодека : A_AAC-2
Продолжительность : 1 ч. 25 м.
Битрейт : 192 Кбит/сек
Каналы : 2 канала
ChannelLayout : L R
Частота : 48,0 КГц
Частота кадров : 46,875 кадров/сек (1024 SPF)
Метод сжатия : С потерями
Размер потока : 116 Мбайт (10%)
Язык : Russian
Default : Да
Forced : Нет

Информация о торренте:
Размер содержимого: 1.2 GB
Скачан: 148 раз
Статус: Проверен
Зарегистрирован на трекере: 2020-02-09 15:43
Скачать торрент


Поддержи раздачу — поставь лайк:
BLIZNEC W
2020-02-09 15:43
Интересного и приятного просмотра!!!

Мои раздачи
Писать комментарии на нашем торрент-трекере могут только зарегистрированные пользователи.
Зарегистрируйтесь или авторизируйтесь на сайте.