»
»

Скачать сериал Триггер / Провокатор (1-4 серии из 16) (Дмитрий Тюрин) [2018, драма, WEB-DL 1080p] - торрент

Скачать бесплатный торрент сериал. Сериал доступен на нашем торрент-трекере бесплатно, без регистрации и смс.

Статистика раздачи
0 [ 0 b/s ] ↑ 7.5 GB ↓ 0 [ 0 b/s ]
Автор Сообщение
BLIZNEC W
2020-02-07 22:48
Триггер / Провокатор (1-4 серии из 16)
Триггер / Провокатор Перевод: Не требуется, cубтитры: отсутствуют
Формат: WEB-DL 1080p, MKV, H.264, AC3
Страна: Россия
Режиссер: Дмитрий Тюрин
Жанр: драма
Всего серий: 16
Продолжительность: 4 x ~ 00:50:00
Год выпуска: 2018

В ролях: Максим Матвеев, Игорь Костолевский, Светлана Иванова, Марк Юсеф, Виктория Маслова, Роман Маякин, Владислав Тирон, Ангелина Стречина, Данила Дунаев, Марианна Шульц, Евгения Вайс, Евгений Токарев, Мария Ахметзянова, Сергей Мухин, Галина Фёдорова (IV), Константин Тополага, Андрей Бестужев, Михаил Кленов, Дмитрий Ярцев, Александр Обласов, Марина Кангелари, Леонид Бичевин, Даниил Воробьёв, Олег Блинов, Хельга Филиппова, Владислав Калашников, Данила Якушев, Владимир Иваний, Кристтина Степунина, Илья Соболев, Степан Середа, Виталий Щербина, Ольга Пронина, Максим Мальцев, Екатерина Копанова, Диана Енакаева, Яна Есипович, Евгения Шипова, Михаил Станкевич, Евгений Данчевский, Елена Синякова, Сергей Гурьев, Елена Глебова, Виктория Борисова, Виталий Матвеев (II), Александра Ремизова (II), Сергей Насибян, Алексей Ошурков, Илья Семёнов, Анна Галлямова, Вадим Дмитриев, Ольга Калашникова, Дмитрий Готсдинер, Андрей Попович, Сергей Карасевич, Мария Клюквина, Константин Новиков, Анастасия Попкова, Елена Старостина (II), Лилия Разакова, Дарья Буткеева, Максим Евсеев, Андрей Касницкий, Алексей Матошин, Виталина Гусак, Екатерина Соломатина, Марина Гусинская, Марина Ерисова, Сергей Мрачковских, Денис Казандайкин

Описание: Артем Стрелецкий – психолог, профессиональный провокатор, практикующий «шоковый» метод психотерапии. Большинство психологов «нянчатся» с клиентами, по полгода выслушивают жалобы на жизнь, сочувствуют – и получают кругленькие суммы за курс сеансов. Артем провоцирует клиентов, оскорбляет их, смеется над ними, специально подстраивает неловкие ситуации и намеренно выталкивает из зоны психологического комфорта. Провокации активируют в психике человека желание немедленно разобраться со своими проблемами, и решение находится очень быстро – буквально за один-два сеанса. Практика Артема процветает, пока один из клиентов Стрелецкого не накладывает на себя руки. Выйдя на свободу после четырехлетнего заключения по делу о доведении до самоубийства, Артем твёрдо намеревается всё исправить – доказать свою невиновность и вернуть любимую жену Дашу...

Рейтинг и доп. информация:


Видео: 1920x1080, (16:9), 25 fps, AVC MPEG-4 (x264), High@L4 ~ 5000 kbps , 0.096 bit/pixel
Аудио: 48 kHz, АС3, 2/0 (L,R), ~256.00 kbps avg
Внимание! Раздача ведётся путём добавления новых серий
Внимание! Раздача ведётся путём добавления новых серий. При каждом добавлении создаётся новый торрент.
Чтобы начать докачку новой серии, пользователям необходимо сделать следующее:
1. Остановить скачивание.
2. Удалить старый торрент у себя из клиента (старые серии удалять не надо).
3. Скачать новый торрент и запустить его у себя в клиенте вместо старого, при этом указать клиенту путь в старую папку куда и должно происходить скачивание новых серий. Ваш клиент при этом должен произвести хеширование (проверку) старой папки и будет докачивать только те серии, которых у вас ещё нет. Старые серии при этом не удаляются, а продолжают раздаваться! Eсли вы уже удалили старые серии, то предотвратить повторную закачку старых серий можно, отжав галочку в соответствующих местах при запуске нового торрента.

MediaInfo
Общее
Уникальный идентификатор : 202820126321292805377581063333652916791 (0x9895BC4726516F2BAA0F9B2A95C6EA37)
Полное имя : C:\Trigger.2020.WEB-DL.(1080p).ExKinoRay\Trigger.S01.E01.2020.WEB-DL.(1080p).ExKinoRay.mkv
Формат : Matroska
Версия формата : Version 4
Размер файла : 1,91 Гбайт
Продолжительность : 50 м. 50 с.
Общий поток : 5377 Кбит/сек
Дата кодирования : UTC 2020-02-07 17:40:43
Программа кодирования : mkvmerge v6.9.1 ('Blue Panther') 64bit built on Apr 18 2014 18:23:38
Библиотека кодирования : libebml v1.3.0 + libmatroska v1.4.1

Видео
Идентификатор : 1
Формат : AVC
Формат/Информация : Advanced Video Codec
Профиль формата : High@L4
Настройки формата : CABAC / 4 Ref Frames
Параметр CABAC формата : Да
Параметр RefFrames формата : 4 кадра
Идентификатор кодека : V_MPEG4/ISO/AVC
Продолжительность : 50 м. 50 с.
Битрейт : 5000 Кбит/сек
Ширина : 1920 пикселей
Высота : 1080 пикселей
Соотношение сторон : 16:9
Режим частоты кадров : Постоянный
Частота кадров : 25,000 кадров/сек
Цветовое пространство : YUV
Субдискретизация насыщенности : 4:2:0
Битовая глубина : 8 бит
Тип развёртки : Прогрессивная
Бит/(Пиксели*Кадры) : 0.096
Размер потока : 1,78 Гбайт (93%)
Default : Да
Forced : Нет

Аудио
Идентификатор : 2
Формат : AC-3
Формат/Информация : Audio Coding 3
Коммерческое название : Dolby Digital
Идентификатор кодека : A_AC3
Продолжительность : 50 м. 50 с.
Вид битрейта : Постоянный
Битрейт : 256 Кбит/сек
Каналы : 2 канала
ChannelLayout : L R
Частота : 48,0 КГц
Частота кадров : 31,250 кадров/сек (1536 SPF)
Метод сжатия : С потерями
Размер потока : 93,1 Мбайт (5%)
Язык : Russian
ServiceKind/String : Complete Main
Default : Да
Forced : Нет

Информация о торренте:
Размер содержимого: 7.5 GB
Скачан: 200 раз
Статус: Обновляемая раздача
Зарегистрирован на трекере: 2020-02-14 23:14
Скачать торрент


Поддержи раздачу — поставь лайк:
E-mail:
* Это обновляемая раздача и мы можем вас информировать об обновлении торрента в ней.

BLIZNEC W
2020-02-07 21:48
Интересного и приятного просмотра!!!

Мои раздачи


Писать комментарии на нашем торрент-трекере могут только зарегистрированные пользователи.
Зарегистрируйтесь или авторизируйтесь на сайте.