»
»

Скачать сериал Замок и ключ, 1 сезон 1-10 серии из 10 / Locke & Key [Пифагор] (Майкл Моррис, Винченцо Натали, Тим Соутэм) [2020, ужасы, драма, триллер, фэнтези, WEB-DL 1080p, D, SUB] - торрент

Скачать бесплатный торрент сериал. Сериал доступен на нашем торрент-трекере бесплатно, без регистрации и смс.

Статистика раздачи
0 [ 0 b/s ] ↑ 21.6 GB ↓ 0 [ 0 b/s ]
Автор Сообщение
Ua_PIRAT
2020-02-07 21:18
Замок и ключ / Locke & Key
Замок и ключ, 1 сезон 1-10 серии из 10 / Locke & Key [Пифагор] Перевод: Профессиональный (полное дублирование) Пифагор по заказу Netflix, Субтитры: русские (Forced, Full), Английские и другие
Формат: WEB-DL 1080p, MKV, H.264, E-AC3
Страна: США
Режиссер: Майкл Моррис, Винченцо Натали, Тим Соутэм
Жанр: ужасы, драма, триллер, фэнтези
Всего серий: 10
Продолжительность: 10 x ~ 00:55:00
Год выпуска: 2020

В ролях: Кевин Алвес, Томас Митчелл Барнет, Коби Бёрд, Ашанти Бромфилд, Лайсла Де Оливейра, Гриффин Глюк, Эрик Грэйз, Коннор Джессап, Эмилия Джонс

Описание: Овдовевшая женщина с тремя детьми переезжает в фамильное имение Дом Ключей в городке Лавкрафт. Семья надеется начать жизнь заново, оставив в прошлом недавние трагические происшествия — отец семейства был жестоко убит. Но особняк скрывает в своих стенах некие ключи и чудовище, которое за ними охотится.



Видео: 1920х1080 (16:9), 23.976 fps, AVC (х264), High@L4 ~5000 kbps avg, 0.098 bit/pixel
Аудио№1: Русский: 48 kHz, Е-AC3, 3/2 (L,C,R,l,r) + LFE ch, ~640 kbps avg
Аудио№2: Английский: 48 kHz, E-АС3 JOC, 3/2 (L,C,R,l,r) + LFE ch, ~768 kbps avg



MediaInfo
General
Unique ID : 21833733167640385416170185118171567084 (0x106D06282CF8219C5902525B83CC93EC)
Complete name : G:\Фільми\Locke.and.Key.S01.1080p.NF.WEB-DL.DDP5.1.x264-EniaHD\Locke.and.Key.S01E01.1080p.NF.WEB-DL.DDP5.1.x264-EniaHD.mkv
Format : Matroska
Format version : Version 4
File size : 2.54 GiB
Duration : 56 min 54 s
Overall bit rate mode : Variable
Overall bit rate : 6 392 kb/s
Movie name : Locke & Key S01E01 - EniaHD
Encoded date : UTC 2020-02-07 11:03:24
Writing application : mkvmerge v43.0.0 ('The Quartermaster') 64-bit
Writing library : libebml v1.3.10 + libmatroska v1.5.2

Video
ID : 1
Format : AVC
Format/Info : Advanced Video Codec
Format profile : High@L4
Format settings : CABAC / 4 Ref Frames
Format settings, CABAC : Yes
Format settings, Reference frames : 4 frames
Codec ID : V_MPEG4/ISO/AVC
Duration : 56 min 54 s
Bit rate mode : Variable
Bit rate : 4 857 kb/s
Maximum bit rate : 20.0 Mb/s
Width : 1 920 pixels
Height : 1 080 pixels
Display aspect ratio : 16:9
Frame rate mode : Constant
Frame rate : 23.976 (24000/1001) FPS
Color space : YUV
Chroma subsampling : 4:2:0
Bit depth : 8 bits
Scan type : Progressive
Bits/(Pixel*Frame) : 0.098
Stream size : 1.93 GiB (76%)
Writing library : x264 core 148 r2715 7e75228
Encoding settings : cabac=1 / ref=4 / deblock=1:0:0 / analyse=0x3:0x111 / me=umh / subme=10 / psy=1 / psy_rd=1.00:0.00 / mixed_ref=1 / me_range=120 / chroma_me=1 / trellis=2 / 8x8dct=1 / cqm=0 / deadzone=21,11 / fast_pskip=1 / chroma_qp_offset=-2 / threads=8 / lookahead_threads=2 / sliced_threads=0 / nr=0 / decimate=1 / interlaced=0 / bluray_compat=0 / stitchable=1 / constrained_intra=0 / bframes=16 / b_pyramid=2 / b_adapt=2 / b_bias=0 / direct=3 / weightb=1 / open_gop=0 / weightp=2 / keyint=240 / keyint_min=121 / scenecut=0 / intra_refresh=0 / rc_lookahead=240 / rc=crf / mbtree=1 / crf=16.0 / qcomp=0.50 / qpmin=6 / qpmax=51 / qpstep=4 / vbv_maxrate=20000 / vbv_bufsize=25000 / crf_max=0.0 / nal_hrd=vbr / filler=0 / ip_ratio=1.40 / aq=1:0.80
Default : Yes
Forced : No

Audio #1
ID : 2
Format : E-AC-3
Format/Info : Enhanced AC-3
Commercial name : Dolby Digital Plus
Codec ID : A_EAC3
Duration : 56 min 54 s
Bit rate mode : Constant
Bit rate : 640 kb/s
Channel(s) : 6 channels
Channel layout : L R C LFE Ls Rs
Sampling rate : 48.0 kHz
Frame rate : 31.250 FPS (1536 SPF)
Compression mode : Lossy
Stream size : 260 MiB (10%)
Language : Russian
Service kind : Complete Main
Default : Yes
Forced : No

Audio #2
ID : 3
Format : E-AC-3 JOC
Format/Info : Enhanced AC-3 with Joint Object Coding
Commercial name : Dolby Digital Plus with Dolby Atmos
Codec ID : A_EAC3
Duration : 56 min 54 s
Bit rate mode : Constant
Bit rate : 768 kb/s
Channel(s) : 6 channels
Channel layout : L R C LFE Ls Rs
Sampling rate : 48.0 kHz
Frame rate : 31.250 FPS (1536 SPF)
Compression mode : Lossy
Stream size : 313 MiB (12%)
Language : English
Service kind : Complete Main
Default : No
Forced : No
Complexity index : 16
Number of dynamic objects : 15
Bed channel count : 1 channel
Bed channel configuration : LFE

Text #1
ID : 4
Format : UTF-8
Codec ID : S_TEXT/UTF8
Codec ID/Info : UTF-8 Plain Text
Title : Forced
Language : Russian
Default : Yes
Forced : No

Text #2
ID : 5
Format : UTF-8
Codec ID : S_TEXT/UTF8
Codec ID/Info : UTF-8 Plain Text
Language : Russian
Default : No
Forced : No

Text #3
ID : 6
Format : UTF-8
Codec ID : S_TEXT/UTF8
Codec ID/Info : UTF-8 Plain Text
Title : SDH
Language : English
Default : No
Forced : No

Text #4
ID : 7
Format : UTF-8
Codec ID : S_TEXT/UTF8
Codec ID/Info : UTF-8 Plain Text
Language : German
Default : No
Forced : No

Text #5
ID : 8
Format : UTF-8
Codec ID : S_TEXT/UTF8
Codec ID/Info : UTF-8 Plain Text
Language : French
Default : No
Forced : No

Text #6
ID : 9
Format : UTF-8
Codec ID : S_TEXT/UTF8
Codec ID/Info : UTF-8 Plain Text
Title : European
Language : Spanish
Default : No
Forced : No

Text #7
ID : 10
Format : UTF-8
Codec ID : S_TEXT/UTF8
Codec ID/Info : UTF-8 Plain Text
Language : Italian
Default : No
Forced : No

Text #8
ID : 11
Format : UTF-8
Codec ID : S_TEXT/UTF8
Codec ID/Info : UTF-8 Plain Text
Language : Portuguese
Default : No
Forced : No



Информация о торренте:
Размер содержимого: 21.6 GB
Скачан: 246 раз
Статус: Проверен
Зарегистрирован на трекере: 2020-02-07 20:18
Скачать торрент


Поддержи раздачу — поставь лайк:
Ua_PIRAT
2020-02-07 20:25
ВСЕМ
anshutz
2020-02-15 13:58
Хороший сериал с отменной картинкой
Писать комментарии на нашем торрент-трекере могут только зарегистрированные пользователи.
Зарегистрируйтесь или авторизируйтесь на сайте.