»
»

Скачать фильм Девятая (Николай Хомерики) / [2019, Триллер, приключения, детектив, ужасы, WEBRip 720p] - торрент

Бесплатные торренты всегда на нашем сайте и в хорошем качестве! Фильм доступен на нашем торрент-трекере бесплатно, без регистрации и смс.

Статистика раздачи
0 [ 0 b/s ] ↑ 1.9 GB ↓ 0 [ 0 b/s ]
Автор Сообщение
Astarot999
2020-02-05 22:59
Девятая
Девятая Формат: WEBRip, MKV, H.264, AC3
Режиссер: Николай Хомерики
Жанр: Триллер, приключения, детектив, ужасы
Продолжительность: 01:34:45
Год выпуска: 2019
В ролях: Евгений Цыганов, Дэйзи Хэд, Дмитрий Лысенков, Юрий Колокольников, Джонатан Солвей, Евгений Ткачук, Игорь Черневич, Иван Решетняк, Мария Скуратова, Анна Христич
Описание:
Петербург конца XIX века охвачен массовым увлечением оккультными науками и эзотерикой. Британка-медиум Оливия Рид приезжает в столицу Российской империи с гастролями и собирает на своих публичных спиритических сеансах толпы людей. В это время в городе происходит серия ритуальных загадочных убийств. На улицах похищают девушек, их изувеченные тела находят в самых разных концах города. Расследованием занимаются молодой полицейский офицер Ростов и его помощник Ганин. С каждой новой жертвой дело становится все запутаннее. Подозрение приводит Ростова к Оливии, и он решает обратиться к ней в надежде, что ее подлинная или мнимая способность вызывать духов погибших может помочь выйти на след убийцы.



Видео: 1280x534 (2.43:1), 25 fps, AVC Н.264 High@L4.1 ~2500 kbps avg, 0.146 bit/pixel
Аудио: 48 kHz, AC3 Dolby Digital, 3/2 (L,C,R,l,r) + LFE ch, ~384 kbps avg

MI
General
Complete name :\Девятая (2019) WEBRip.H.264.720p.LQ.NNMClub.mkv
Format : Matroska
Format version : Version 4
File size : 1.91 GiB
Duration : 1 h 34 min
Overall bit rate : 2 886 kb/s
Movie name : Девятая (2019) WEBRip.H.264.720p.LQ.NNMClub
Encoded date : UTC 2020-01-06 07:42:25
Writing application : mkvmerge v40.0.0 ('Old Town Road + Pony') 64-bit
Writing library : libebml v1.3.9 + libmatroska v1.5.2

Video
ID : 1
Format : AVC
Format/Info : Advanced Video Codec
Format profile : High@L4.1
Format settings : CABAC / 12 Ref Frames
Format settings, CABAC : Yes
Format settings, Reference frames : 12 frames
Codec ID : V_MPEG4/ISO/AVC
Duration : 1 h 34 min
Bit rate : 2 500 kb/s
Width : 1 280 pixels
Height : 534 pixels
Display aspect ratio : 2.40:1
Frame rate mode : Constant
Frame rate : 25.000 FPS
Color space : YUV
Chroma subsampling : 4:2:0
Bit depth : 8 bits
Scan type : Progressive
Bits/(Pixel*Frame) : 0.146
Stream size : 1.65 GiB (87%)
Title : Девятая (2019) WEBRip.H.264.720p.LQ.NNMClub
Writing library : x264 core 158 r2984 3759fcb
Encoding settings : cabac=1 / ref=12 / deblock=1:-3:-3 / analyse=0x3:0x133 / me=dia / subme=11 / psy=1 / psy_rd=1.00:0.25 / mixed_ref=1 / me_range=16 / chroma_me=1 / trellis=2 / 8x8dct=1 / cqm=0 / deadzone=6,6 / fast_pskip=0 / chroma_qp_offset=-4 / threads=12 / lookahead_threads=3 / sliced_threads=0 / nr=0 / decimate=0 / interlaced=0 / bluray_compat=0 / constrained_intra=0 / bframes=10 / b_pyramid=2 / b_adapt=2 / b_bias=0 / direct=1 / weightb=1 / open_gop=0 / weightp=2 / keyint=240 / keyint_min=23 / scenecut=40 / intra_refresh=0 / rc_lookahead=40 / rc=2pass / mbtree=1 / bitrate=2500 / ratetol=1.0 / qcomp=0.60 / qpmin=0 / qpmax=69 / qpstep=4 / cplxblur=20.0 / qblur=0.5 / vbv_maxrate=50000 / vbv_bufsize=62500 / nal_hrd=none / filler=0 / ip_ratio=1.10 / aq=3:0.80
Language : Russian
Default : Yes
Forced : No

Audio
ID : 2
Format : AC-3
Format/Info : Audio Coding 3
Commercial name : Dolby Digital
Codec ID : A_AC3
Duration : 1 h 34 min
Bit rate mode : Constant
Bit rate : 384 kb/s
Channel(s) : 6 channels
Channel layout : L R C LFE Ls Rs
Sampling rate : 48.0 kHz
Frame rate : 31.250 FPS (1536 SPF)
Compression mode : Lossy
Stream size : 260 MiB (13%)
Title : iTunes
Language : Russian
Service kind : Complete Main
Default : Yes
Forced : No

Информация о торренте:
Размер содержимого: 1.9 GB
Скачан: 650 раз
Статус: Проверен
Зарегистрирован на трекере: 2020-02-05 21:59
Скачать торрент


Поддержи раздачу — поставь лайк:
liudochka
2020-02-11 09:14
качественный фильм, но слабоватенько!!!!!!
janpan
2020-02-17 23:06
Сама задумка и повествование - очень располагает, снят тоже достойно... Но чего-то не хватает. А вот по части антуража, декораций - достойно.
Писать комментарии на нашем торрент-трекере могут только зарегистрированные пользователи.
Зарегистрируйтесь или авторизируйтесь на сайте.