»
»

Скачать фильм Доктор Сон [Режиссерская версия] / Doctor Sleep [Director's Cut] (Майк Флэнеган) [2019, ужасы, фэнтези, триллер, драма, BDRemux 1080p] VO - торрент

Скачать фильм через торрент бесплатно. Фильм доступен на нашем торрент-трекере бесплатно, без регистрации и смс.

Статистика раздачи
0 [ 0 b/s ] ↑ 36.5 GB ↓ 0 [ 0 b/s ]
Автор Сообщение
rainbow.n
2020-02-04 13:34
Доктор Сон [Режиссерская версия] / Doctor Sleep [Director's Cut]
Доктор Сон [Режиссерская версия] / Doctor Sleep [Director's Cut] Перевод: Любительский (одноголосый)
Cубтитры: английские
Формат: BDRemux, MKV, H.264, AC3/True-HD
Страна: США, Великобритания
Режиссер: Майк Флэнеган
Жанр: ужасы, фэнтези, триллер, драма
Продолжительность: 03:00:16
Год выпуска: 2019

В ролях: Юэн Макгрегор, Ребекка Фергюсон, Кайли Кёрран, Брюс Гринвуд, Зан Маккларнон, Клифф Кёртис, Карл Ламбли, Джейкоб Тремблей, Закари Момо, Эмили Элин Линд

Описание: Прошло много лет с тех пор, как мальчик с паранормальными способностями Дэнни Торранс пережил кошмарный сезон в отеле «Оверлук», где стал свидетелем безумия и гибели своего отца. Повзрослев, Дэн вёл жизнь маргинала-алкоголика, а теперь пытается завязать и устроился на работу в дом престарелых. Там он безошибочно определяет, кому из постояльцев подошла очередь покинуть этот мир, за что и получил прозвище Доктор Сон. Однажды с Дэном устанавливает связь невероятно одарённая «сияющая» девочка Абра. Вскоре ей потребуется его помощь, чтобы противостоять членам организации «Истинный узел» — группы охотников за особенными детьми.

[imdb=https://www.imdb.com/title/tt5606664/]

Видео: 1920x1080p (16:9), 23,976 fps, AVC MPEG-4 (x264), High@L4.1 ~ 23,8 Mbit/s, 0.480 bit/pixel

Аудио#1: Русский: 48 kHz, AC3, 3/2 (L,C,R,l,r) + LFE ch, ~640 kbps avg 16-bit [Любительский (одноголосый) В. Замез / zamez]
Аудио#2: Aнглийский: Dolby TrueHD+Atmos, 8 ch, 48 kHz, 3797 kbps [Оригинал]
Аудио#3: Aнглийский: 48 kHz, AC3, 3/2 (L,C,R,l,r) + LFE ch, ~640 kbps avg 16-bit [Оригинал]

MI
Общее
Уникальный идентификатор : 313361215284418113719820781747544229185 (0xEBBF2CBF34EE2755E2D66288FCFB8541)
Полное имя : D:\Doctor.Sleep.2019.Remux.1080p.mkv
Формат : Matroska
Версия формата : Version 4 / Version 2
Размер файла : 36,5 Гбайт
Продолжительность : 3 ч. 0 м.
Режим общего битрейта : Переменный
Общий поток : 29,0 Мбит/сек
Дата кодирования : UTC 2020-02-04 07:27:07
Программа кодирования : mkvmerge v37.0.0 ('Leave It') 64-bit
Библиотека кодирования : libebml v1.3.9 + libmatroska v1.5.2

Видео
Идентификатор : 1
Формат : AVC
Формат/Информация : Advanced Video Codec
Профиль формата : High@L4.1
Параметр CABAC формата : Да
Параметр RefFrames формата : 4 кадра
Идентификатор кодека : V_MPEG4/ISO/AVC
Продолжительность : 3 ч. 0 м.
Вид битрейта : Переменный
Битрейт : 23,8 Мбит/сек
Максимальный битрейт : 29,5 Мбит/сек
Ширина : 1920 пикселей
Высота : 1080 пикселей
Соотношение сторон : 16:9
Режим частоты кадров : Постоянный
Частота кадров : 23,976 (24000/1001) кадра/сек
Цветовое пространство : YUV
Субдискретизация насыщенности : 4:2:0
Битовая глубина : 8 бит
Тип развёртки : Прогрессивная
Бит/(Пиксели*Кадры) : 0.480
Размер потока : 30,0 Гбайт (82%)
Язык : English
Default : Нет
Forced : Да

Аудио #1
Идентификатор : 2
Формат : AC-3
Формат/Информация : Audio Coding 3
Параметр Endianness формата : Big
Идентификатор кодека : A_AC3
Продолжительность : 3 ч. 0 м.
Вид битрейта : Постоянный
Битрейт : 640 Кбит/сек
Каналы : 6 каналов
Расположение каналов : Front: L C R, Side: L R, LFE
Частота : 48,0 КГц
Частота кадров : 31,250 кадров/сек (1536 SPF)
Битовая глубина : 16 бит
Метод сжатия : С потерями
Размер потока : 825 Мбайт (2%)
Заголовок : VO
Язык : Russian
ServiceKind/String : Complete Main
Default : Да
Forced : Нет

Аудио #2
Идентификатор : 3
Формат : TrueHD
Профиль формата : TrueHD+Atmos / TrueHD
Идентификатор кодека : A_TRUEHD
Продолжительность : 3 ч. 0 м.
Вид битрейта : Переменный
Битрейт : 3797 Кбит/сек
Максимальный битрейт : 7026 Кбит/сек
Каналы : Object Based / 8 каналов
Расположение каналов : Object Based / Front: L C R, Side: L R, Back: L R, LFE
Частота : / 48,0 КГц
Частота кадров : 1200,000 кадров/сек (40 SPF)
Метод сжатия : Без потерь
Размер потока : 4,78 Гбайт (13%)
Заголовок : Original
Язык : English
Default : Нет
Forced : Нет

Аудио #3
Идентификатор : 4
Формат : AC-3
Формат/Информация : Audio Coding 3
Параметр Endianness формата : Big
Идентификатор кодека : A_AC3
Продолжительность : 3 ч. 0 м.
Вид битрейта : Постоянный
Битрейт : 640 Кбит/сек
Каналы : 6 каналов
Расположение каналов : Front: L C R, Side: L R, LFE
Частота : 48,0 КГц
Частота кадров : 31,250 кадров/сек (1536 SPF)
Битовая глубина : 16 бит
Метод сжатия : С потерями
Размер потока : 825 Мбайт (2%)
Язык : English
ServiceKind/String : Complete Main
Default : Нет
Forced : Нет

Текст
Идентификатор : 5
Формат : UTF-8
Идентификатор кодека : S_TEXT/UTF8
Идентификатор кодека/Информация : UTF-8 Plain Text
Продолжительность : 2 ч. 53 м.
Битрейт : 38 бит/сек
ElementCount : 1971
Размер потока : 49,1 Кбайт (0%)
Заголовок : SRT
Язык : English
Default : Нет
Forced : Нет

Меню
00:00:00.000 : en:Chapter 01
00:08:29.300 : en:Chapter 02
00:16:39.623 : en:Chapter 03
00:28:01.638 : en:Chapter 04
00:36:45.453 : en:Chapter 05
00:44:42.763 : en:Chapter 06
00:53:24.367 : en:Chapter 07
01:03:41.484 : en:Chapter 08
01:13:39.456 : en:Chapter 09
01:22:05.962 : en:Chapter 10
01:28:56.331 : en:Chapter 11
01:37:13.244 : en:Chapter 12
01:46:31.593 : en:Chapter 13
01:55:11.529 : en:Chapter 14
02:06:19.947 : en:Chapter 15
02:14:58.590 : en:Chapter 16
02:21:33.401 : en:Chapter 17
02:31:58.359 : en:Chapter 18
02:42:26.403 : en:Chapter 19
02:54:07.437 : en:Chapter 20


Информация о торренте:
Размер содержимого: 36.5 GB
Скачан: 134 раза
Статус: Проверен
Зарегистрирован на трекере: 2020-02-04 12:34
Скачать торрент


Поддержи раздачу — поставь лайк:

Писать комментарии на нашем торрент-трекере могут только зарегистрированные пользователи.
Зарегистрируйтесь или авторизируйтесь на сайте.