»
»

Скачать фильм Лабиринт (1-4 серии из 4) (Антон Гойда) / [2020, мелодрама, WEBRip 1080p] - торрент

Скачать бесплатный торрент фильм. Фильм доступен на нашем торрент-трекере бесплатно, без регистрации и смс.

Статистика раздачи
0 [ 0 b/s ] ↑ 6.6 GB ↓ 0 [ 0 b/s ]
Автор Сообщение
BLIZNEC W
2020-02-03 10:42
Лабиринт (1-4 серии из 4)
Лабиринт Перевод: Не требуется, cубтитры: отсутствуют
Формат: WEBRip 1080p, MKV, H.264, AC3
Страна: Украина
Режиссер: Антон Гойда
Жанр: мелодрама
Продолжительность: 4 х 00:45:00
Год выпуска: 2020

В ролях: Александра Булычёва, Тарас Кузьмин, Прохор Дубравин, Елизавета Козлова, Алексей Сморигин, Валерия Березовская, Александр Заднепровский, Ксения Николаева, Даниил Каменский, Елена Узлюк, Людмила Загорская, Дарья Легейда, Руслан Коваль, Ирина Бондаренко, Галина Корнеева, Нина Набока, Сергей Кучера, Максим Девизоров, Кирилл Горолюк, Полина Фролова (II), Александр Третьяченко

Описание: Жизнь Алины Тихоновой – идеальная картинка. Успешный дизайнер, она замужем за известным адвокатом, растит двух прекрасных детей и даже дружит со свекровью. Алина, чье детство было далеко не безоблачным, твердо вознамерилась сделать все, чтобы ее собственные дети росли в идеальной семье. Она готова закрыть глаза на то, что ее муж, регулярно дарящий шикарные букеты, тиран и деспот, дочка отстранена и связана с плохой компанией, сын молча страдает, выполняя нелепые прихоти отца, а свекровь ее не уважает. Но Алина уверена – у всех свои недостатки, и она будет терпеть побои мужа, чтобы не повторить судьбу матери, которую она скрывает от собственных детей, потому что та не вписывается в идеальную картинку. Все заканчивается в тот день, когда муж поднимает руку на сына, чуть не убивает саму Алину, а дочь уходит из дома...

Рейтинг и доп. информация:


Видео: 1920x1080, (16:9), 25 fps, AVC MPEG-4 (x264), High@L4.1 ~ 5000 kbps , 0.096 bit/pixel
Аудио: 48 kHz, AC3, 2/0 (L,R) ch, ~192 kbps
MediaInfo
Общее
Уникальный идентификатор : 109674740445682646002968659138974098044 (0x52829630721E173034C04B451784A27C)
Полное имя : C:\Лабиринт.(2020).WEBRip (1080p).by.Nicodem.Files-x\01.Лабиринт.(2020).WEBRip (1080p).by.Nicodem.Files-x.mkv
Формат : Matroska
Версия формата : Version 4
Размер файла : 1,63 Гбайт
Продолжительность : 45 м. 19 с.
Режим общего битрейта : Постоянный
Общий поток : 5152 Кбит/сек
Программа кодирования : Lavf56.36.100
Библиотека кодирования : Lavf56.36.100

Видео
Идентификатор : 1
Формат : AVC
Формат/Информация : Advanced Video Codec
Профиль формата : High@L4.1
Настройки формата : 2 Ref Frames
Параметр CABAC формата : Нет
Параметр RefFrames формата : 2 кадра
Идентификатор кодека : V_MPEG4/ISO/AVC
Продолжительность : 45 м. 19 с.
Вид битрейта : Постоянный
Битрейт : 5000 Кбит/сек
Ширина : 1920 пикселей
Высота : 1080 пикселей
Соотношение сторон : 16:9
Режим частоты кадров : Постоянный
Частота кадров : 25,000 кадров/сек
Стандарт вещания : PAL
Цветовое пространство : YUV
Субдискретизация насыщенности : 4:2:0
Битовая глубина : 8 бит
Тип развёртки : Прогрессивная
Бит/(Пиксели*Кадры) : 0.096
Размер потока : 1,54 Гбайт (94%)
Default : Да
Forced : Нет
Цветовой диапазон : Limited
Основные цвета : BT.709
Характеристики трансфера : BT.709
Коэффициенты матрицы : BT.709

Аудио
Идентификатор : 2
Формат : AC-3
Формат/Информация : Audio Coding 3
Коммерческое название : Dolby Digital
Идентификатор кодека : A_AC3
Продолжительность : 45 м. 19 с.
Вид битрейта : Постоянный
Битрейт : 192 Кбит/сек
Каналы : 2 канала
ChannelLayout : L R
Частота : 48,0 КГц
Частота кадров : 31,250 кадров/сек (1536 SPF)
Метод сжатия : С потерями
Задержка видео : -40 мс.
Размер потока : 62,2 Мбайт (4%)
Язык : unknown
ServiceKind/String : Complete Main
Default : Да
Forced : Нет

Информация о торренте:
Размер содержимого: 6.6 GB
Скачан: 217 раз
Статус: Временная раздача
Зарегистрирован на трекере: 2020-02-03 09:42
Скачать торрент


Поддержи раздачу — поставь лайк:
BLIZNEC W
2020-02-03 09:42
Интересного и приятного просмотра!!!

Мои раздачи
Писать комментарии на нашем торрент-трекере могут только зарегистрированные пользователи.
Зарегистрируйтесь или авторизируйтесь на сайте.