»
»

Скачать фильм Лабиринт (1-4 серии из 4) (Антон Гойда) / [2020, мелодрама, WEB-DL 1080p] - торрент

Скачать бесплатный торрент фильм. Фильм доступен на нашем торрент-трекере бесплатно, без регистрации и смс.

Статистика раздачи
0 [ 0 b/s ] ↑ 6.6 GB ↓ 0 [ 0 b/s ]
Автор Сообщение
BLIZNEC W
2020-02-03 10:42
Лабиринт (1-4 серии из 4)
Лабиринт Перевод: Не требуется, cубтитры: отсутствуют
Формат: WEB-DL 1080p, MKV, H.264, AC3
Страна: Украина
Режиссер: Антон Гойда
Жанр: мелодрама
Продолжительность: 4 х 00:45:00
Год выпуска: 2020

В ролях: Александра Булычёва, Тарас Кузьмин, Прохор Дубравин, Елизавета Козлова, Алексей Сморигин, Валерия Березовская, Александр Заднепровский, Ксения Николаева, Даниил Каменский, Елена Узлюк, Людмила Загорская, Дарья Легейда, Руслан Коваль, Ирина Бондаренко, Галина Корнеева, Нина Набока, Сергей Кучера, Максим Девизоров, Кирилл Горолюк, Полина Фролова (II), Александр Третьяченко

Описание: Жизнь Алины Тихоновой – идеальная картинка. Успешный дизайнер, она замужем за известным адвокатом, растит двух прекрасных детей и даже дружит со свекровью. Алина, чье детство было далеко не безоблачным, твердо вознамерилась сделать все, чтобы ее собственные дети росли в идеальной семье. Она готова закрыть глаза на то, что ее муж, регулярно дарящий шикарные букеты, тиран и деспот, дочка отстранена и связана с плохой компанией, сын молча страдает, выполняя нелепые прихоти отца, а свекровь ее не уважает. Но Алина уверена – у всех свои недостатки, и она будет терпеть побои мужа, чтобы не повторить судьбу матери, которую она скрывает от собственных детей, потому что та не вписывается в идеальную картинку. Все заканчивается в тот день, когда муж поднимает руку на сына, чуть не убивает саму Алину, а дочь уходит из дома...

Рейтинг и доп. информация:


Видео: 1920x1080, (16:9), 25 fps, AVC MPEG-4 (x264), High@L4.1 ~ 5000 kbps , 0.096 bit/pixel
Аудио: 44,1 kHz, AC3, 2/0 (L,R) ch, ~192 kbps
MediaInfo
Общее
Уникальный идентификатор : 335644703304238551807014468387268488161 (0xFC82D187B31346FF07FAAABFB0386BE1)
Полное имя : C:\Лабиринт.(2020).WEB-DL (1080p).by.Nicodem.Files-x\01.Лабиринт.(2020).WEB-DL (1080p).by.Nicodem.Files-x.mkv
Формат : Matroska
Версия формата : Version 4
Размер файла : 1,64 Гбайт
Продолжительность : 45 м. 19 с.
Общий поток : 5187 Кбит/сек
Программа кодирования : Lavf56.36.100
Библиотека кодирования : Lavf56.36.100

Видео
Идентификатор : 1
Формат : AVC
Формат/Информация : Advanced Video Codec
Профиль формата : High@L4.1
Настройки формата : CABAC / 5 Ref Frames
Параметр CABAC формата : Да
Параметр RefFrames формата : 5 кадров
Идентификатор кодека : V_MPEG4/ISO/AVC
Продолжительность : 45 м. 19 с.
Битрейт : 5000 Кбит/сек
Ширина : 1920 пикселей
Высота : 1080 пикселей
Соотношение сторон : 16:9
Режим частоты кадров : Постоянный
Частота кадров : 25,000 кадров/сек
Цветовое пространство : YUV
Субдискретизация насыщенности : 4:2:0
Битовая глубина : 8 бит
Тип развёртки : Прогрессивная
Бит/(Пиксели*Кадры) : 0.096
Размер потока : 1,55 Гбайт (94%)
Библиотека кодирования : x264 core 148
Настройки программы : cabac=1 / ref=5 / deblock=1:0:0 / analyse=0x3:0x113 / me=hex / subme=8 / psy=1 / psy_rd=1.00:0.00 / mixed_ref=1 / me_range=16 / chroma_me=1 / trellis=2 / 8x8dct=1 / cqm=0 / deadzone=21,11 / fast_pskip=1 / chroma_qp_offset=-2 / threads=34 / lookahead_threads=5 / sliced_threads=0 / nr=0 / decimate=1 / interlaced=0 / bluray_compat=0 / constrained_intra=0 / bframes=3 / b_pyramid=2 / b_adapt=1 / b_bias=0 / direct=3 / weightb=1 / open_gop=0 / weightp=2 / keyint=250 / keyint_min=25 / scenecut=0 / intra_refresh=0 / rc_lookahead=50 / rc=abr / mbtree=1 / bitrate=5000 / ratetol=1.0 / qcomp=0.60 / qpmin=0 / qpmax=69 / qpstep=4 / ip_ratio=1.40 / aq=1:1.00
Default : Да
Forced : Нет

Аудио
Идентификатор : 2
Формат : AC-3
Формат/Информация : Audio Coding 3
Коммерческое название : Dolby Digital
Идентификатор кодека : A_AC3
Продолжительность : 45 м. 19 с.
Вид битрейта : Постоянный
Битрейт : 192 Кбит/сек
Каналы : 2 канала
ChannelLayout : L R
Частота : 44,1 КГц
Частота кадров : 28,711 кадров/сек (1536 SPF)
Метод сжатия : С потерями
Задержка видео : -80 мс.
Размер потока : 62,2 Мбайт (4%)
Язык : unknown
ServiceKind/String : Complete Main
Default : Да
Forced : Нет

Информация о торренте:
Размер содержимого: 6.6 GB
Скачан: 102 раза
Статус: Временная раздача
Зарегистрирован на трекере: 2020-03-25 16:29
Скачать торрент


Поддержи раздачу — поставь лайк:
BLIZNEC W
2020-02-03 09:42
Интересного и приятного просмотра!!!

Мои раздачи
BLIZNEC W
2020-03-25 16:40
Замена на релиз без ЛОГО канала
Писать комментарии на нашем торрент-трекере могут только зарегистрированные пользователи.
Зарегистрируйтесь или авторизируйтесь на сайте.