»
»

Скачать фильм Успеть все исправить (1-4 серии из 4) (Мирослав Малич) / [2020, мелодрама, WEBRip 1080p] - торрент

Скачать фильм через торрент бесплатно. Фильм доступен на нашем торрент-трекере бесплатно, без регистрации и смс.

Статистика раздачи
0 [ 0 b/s ] ↑ 6.5 GB ↓ 0 [ 0 b/s ]
Автор Сообщение
BLIZNEC W
2020-02-03 10:24
Успеть все исправить (1-4 серии из 4)
Успеть все исправить Перевод: Не требуется, cубтитры: отсутствуют
Формат: WEBRip 1080p, MKV, H.264, AC3
Страна: Украина
Режиссер: Мирослав Малич
Жанр: мелодрама
Продолжительность: 4 х 00:45:00
Год выпуска: 2020

В ролях: Ольга Павловец, Пётр Рыков, Татьяна Казючиц, Александра Киреева, Егор Козлов, Ярослав Шахторин, Александра Польгуй, Наталья Кленина, Руслан Сокольник, Максим Даньшин, Олег Щербина (II), Григорий Черемушев, Дмитрий Меленевский, Алексей Березня, Павел Левицкий, Александр Комендантов, Елена Бондарева-Репина, Вячеслав Василюк, Екатерина Олиферовская, Мария Кондратенко, Пётр Бойко, Жан Селезенев, Рамиль Хабибулин, Евфросиния Мельник, Алексей Чугаев

Описание: Бизнесмен Егор Кормильцев в день своего сорокалетия узнает, что смертельно болен, и что жить ему осталось несколько месяцев. Егор отправляется в прощальную поездку в родной провинциальный городок, где у него живут мать, сестра и племянник, с которыми он не виделся много лет. В родном городке ему предстоит сделать много открытий не только о людях, которых он давно знал, но и о себе. Нажить врагов и найти любовь... Только может ли он быть счастливым, если его дни сочтены?

Рейтинг и доп. информация:


Видео: 1920x1080, (16:9), 25 fps, AVC MPEG-4 (x264), High@L4.1 ~ 5000 kbps , 0.096 bit/pixel
Аудио: 48 kHz, AC3, 2/0 (L,R) ch, ~192 kbps
MediaInfo
Общее
Уникальный идентификатор : 41768406181757838380997185661855950567 (0x1F6C4D6B5CE61DD5AB224E45533966E7)
Полное имя : C:\Успеть всё исправить.(2020).WEBRip (1080p).by.Nicodem.Files-x\01.Успеть всё исправить.(2020).WEBRip (1080p).by.Nicodem.Files-x.mkv
Формат : Matroska
Версия формата : Version 4
Размер файла : 1,62 Гбайт
Продолжительность : 45 м. 5 с.
Режим общего битрейта : Постоянный
Общий поток : 5137 Кбит/сек
Программа кодирования : Lavf56.36.100
Библиотека кодирования : Lavf56.36.100

Видео
Идентификатор : 1
Формат : AVC
Формат/Информация : Advanced Video Codec
Профиль формата : High@L4.1
Настройки формата : 2 Ref Frames
Параметр CABAC формата : Нет
Параметр RefFrames формата : 2 кадра
Идентификатор кодека : V_MPEG4/ISO/AVC
Продолжительность : 45 м. 5 с.
Вид битрейта : Постоянный
Битрейт : 5000 Кбит/сек
Ширина : 1920 пикселей
Высота : 1080 пикселей
Соотношение сторон : 16:9
Режим частоты кадров : Постоянный
Частота кадров : 25,000 кадров/сек
Стандарт вещания : PAL
Цветовое пространство : YUV
Субдискретизация насыщенности : 4:2:0
Битовая глубина : 8 бит
Тип развёртки : Прогрессивная
Бит/(Пиксели*Кадры) : 0.096
Размер потока : 1,53 Гбайт (94%)
Default : Да
Forced : Нет
Цветовой диапазон : Limited
Основные цвета : BT.709
Характеристики трансфера : BT.709
Коэффициенты матрицы : BT.709

Аудио
Идентификатор : 2
Формат : AC-3
Формат/Информация : Audio Coding 3
Коммерческое название : Dolby Digital
Идентификатор кодека : A_AC3
Продолжительность : 45 м. 5 с.
Вид битрейта : Постоянный
Битрейт : 192 Кбит/сек
Каналы : 2 канала
ChannelLayout : L R
Частота : 48,0 КГц
Частота кадров : 31,250 кадров/сек (1536 SPF)
Метод сжатия : С потерями
Задержка видео : -40 мс.
Размер потока : 61,9 Мбайт (4%)
Язык : unknown
ServiceKind/String : Complete Main
Default : Да
Forced : Нет

Информация о торренте:
Размер содержимого: 6.5 GB
Скачан: 265 раз
Статус: Временная раздача
Зарегистрирован на трекере: 2020-02-03 09:24
Скачать торрент


Поддержи раздачу — поставь лайк:
BLIZNEC W
2020-02-03 09:24
Интересного и приятного просмотра!!!

Мои раздачи
Писать комментарии на нашем торрент-трекере могут только зарегистрированные пользователи.
Зарегистрируйтесь или авторизируйтесь на сайте.