»
»

Скачать фильм Зеленый дом (Андрей Фролов) / [1964, драма, SATRip-HEVC] - торрент

Скачать через торрент фильм вы можете, нажав на синюю кнопку. Фильм доступен на нашем торрент-трекере бесплатно, без регистрации и смс.

Статистика раздачи
0 [ 0 b/s ] ↑ 1.1 GB ↓ 0 [ 0 b/s ]
Автор Сообщение
BLIZNEC W
2020-02-02 14:42
Зеленый дом
Зеленый дом Формат: SATRip-HEVC, MKV, H.265, AAC
Режиссер: Андрей Фролов
Жанр: драма
Продолжительность: 01:24:38
Год выпуска: 1964

В ролях: Владимир Селезнёв, Долорес Столбова, Даниил Нетребин, Адольф Ильин, Ольга Левашова, Павел Хромовских, Борис Мезрин, Борис Тарабакин, Елена Максимова, Василий Макаров, Михаил Буйный

Описание: Демобилизованный моряк Силаев женится на любимой девушке Наташе. Вскоре он узнает, что семья жены живет на нетрудовые доходы, и категорически отказывается участвовать в их спекулятивных махинациях. Силаев и Наташа уезжают в Сибирь, в один из леспромхозов. Здесь он начинает решительно бороться против хищнического истребления леса, с равнодушием и делячеством руководителей. Наташа же, не выдержав трудностей жизни, покидает мужа. Силаев остается один и, продолжая борьбу, обретает новых друзей.

Рейтинг и доп. информация:


Видео: 688->763x572, (4:3), 25 fps, AVC MPEG-4 (x265), High@L4.1 ~ 1552 kbps , 0.155 bit/pixel
Аудио: 48 kHz, AAC, 2 ch (L R), ~ 128 Kbps avg
MediaInfo
Общее
Полное имя : Zelenyy.dom.1964.SATRip-HEVC_[New-team]_by_AVP_Studio.mkv
Формат : Matroska
Версия формата : Version 4
Размер файла : 1,07 Гбайт
Продолжительность : 1 ч. 30 м.
Общий поток : 1682 Кбит/сек
Дата кодирования : UTC 2020-02-02 08:30:17
Программа кодирования : mkvmerge v43.0.0 ('The Quartermaster') 64-bit
Библиотека кодирования : libebml v1.3.10 + libmatroska v1.5.2

Видео
Идентификатор : 1
Формат : HEVC
Формат/Информация : High Efficiency Video Coding
Профиль формата : Main@L3@Main
Идентификатор кодека : V_MPEGH/ISO/HEVC
Продолжительность : 1 ч. 30 м.
Битрейт : 1552 Кбит/сек
Ширина : 696 пикселей
Высота : 572 пикселя
Соотношение сторон : 4:3
Соотношение сторон в оригинале : 4:3
Режим частоты кадров : Постоянный
Частота кадров : 25,000 кадров/сек
Цветовое пространство : YUV
Субдискретизация насыщенности : 4:2:0
Битовая глубина : 8 бит
Бит/(Пиксели*Кадры) : 0.155
Размер потока : 1007 Мбайт (92%)
Язык : Russian
Default : Да
Forced : Нет

Аудио
Идентификатор : 2
Формат : AAC LC
Формат/Информация : Advanced Audio Codec Low Complexity
Идентификатор кодека : A_AAC-2
Продолжительность : 1 ч. 30 м.
Битрейт : 128 Кбит/сек
Каналы : 2 канала
ChannelLayout : L R
Частота : 48,0 КГц
Частота кадров : 46,875 кадров/сек (1024 SPF)
Метод сжатия : С потерями
Задержка видео : 9 мс.
Размер потока : 83,0 Мбайт (8%)
Язык : Russian
Default : Да
Forced : Нет

Информация о торренте:
Размер содержимого: 1.1 GB
Скачан: 169 раз
Статус: Проверен
Зарегистрирован на трекере: 2020-02-02 13:43
Скачать торрент


Поддержи раздачу — поставь лайк:
BLIZNEC W
2020-02-02 13:43
Интересного и приятного просмотра!!!

Мои раздачи
Писать комментарии на нашем торрент-трекере могут только зарегистрированные пользователи.
Зарегистрируйтесь или авторизируйтесь на сайте.