»
»

Скачать фильм Зеленый дом (Андрей Фролов) / [1964, драма, SATRip-AVC] - торрент

Торрент можно скачать, нажав синюю кнопку ниже. Фильм доступен на нашем торрент-трекере бесплатно, без регистрации и смс.

Статистика раздачи
0 [ 0 b/s ] ↑ 1.1 GB ↓ 0 [ 0 b/s ]
Автор Сообщение
BLIZNEC W
2020-02-02 14:18
Зеленый дом
Зеленый дом Формат: SATRip-AVC, MKV, H.264, AC3
Режиссер: Андрей Фролов
Жанр: драма
Продолжительность: 01:24:38
Год выпуска: 1964

В ролях: Владимир Селезнёв, Долорес Столбова, Даниил Нетребин, Адольф Ильин, Ольга Левашова, Павел Хромовских, Борис Мезрин, Борис Тарабакин, Елена Максимова, Василий Макаров, Михаил Буйный

Описание: Демобилизованный моряк Силаев женится на любимой девушке Наташе. Вскоре он узнает, что семья жены живет на нетрудовые доходы, и категорически отказывается участвовать в их спекулятивных махинациях. Силаев и Наташа уезжают в Сибирь, в один из леспромхозов. Здесь он начинает решительно бороться против хищнического истребления леса, с равнодушием и делячеством руководителей. Наташа же, не выдержав трудностей жизни, покидает мужа. Силаев остается один и, продолжая борьбу, обретает новых друзей.

Рейтинг и доп. информация:


Видео: 696->763x572, (4:3), 25 fps, AVC MPEG-4 (x264), High@L4.1 ~ 1525 kbps , 0.15 bit/pixel
Аудио: 48 kHz, AC3, 2/0 (L,R) ch, ~192 kbps
MediaInfo
Общее
Полное имя : Zelenyy.dom.1964.SATRip-AVC_[New-team]_by_AVP_Studio.mkv
Формат : Matroska
Версия формата : Version 2
Размер файла : 1,09 Гбайт
Продолжительность : 1 ч. 30 м.
Общий поток : 1719 Кбит/сек
Дата кодирования : UTC 2020-01-31 19:52:44
Программа кодирования : mkvmerge v6.9.1 ('Blue Panther') 32bit built on Apr 18 2014 18:15:44
Библиотека кодирования : libebml v1.3.0 + libmatroska v1.4.1

Видео
Идентификатор : 1
Формат : AVC
Формат/Информация : Advanced Video Codec
Профиль формата : High@L4.1
Настройки формата : CABAC / 10 Ref Frames
Параметр CABAC формата : Да
Параметр RefFrames формата : 10 кадров
Идентификатор кодека : V_MPEG4/ISO/AVC
Продолжительность : 1 ч. 30 м.
Битрейт : 1525 Кбит/сек
Ширина : 696 пикселей
Высота : 572 пикселя
Соотношение сторон : 4:3
Режим частоты кадров : Постоянный
Частота кадров : 25,000 кадров/сек
Цветовое пространство : YUV
Субдискретизация насыщенности : 4:2:0
Битовая глубина : 8 бит
Тип развёртки : Прогрессивная
Бит/(Пиксели*Кадры) : 0.153
Размер потока : 968 Мбайт (87%)
Библиотека кодирования : x264 core 159 r2991 1771b55
Настройки программы : cabac=1 / ref=10 / deblock=1:-2:-1 / analyse=0x3:0x113 / me=umh / subme=10 / psy=1 / psy_rd=1.00:0.00 / mixed_ref=1 / me_range=32 / chroma_me=1 / trellis=2 / 8x8dct=1 / cqm=0 / deadzone=21,11 / fast_pskip=1 / chroma_qp_offset=-2 / threads=6 / lookahead_threads=1 / sliced_threads=0 / nr=0 / decimate=0 / interlaced=0 / bluray_compat=0 / constrained_intra=0 / bframes=8 / b_pyramid=2 / b_adapt=2 / b_bias=0 / direct=3 / weightb=1 / open_gop=0 / weightp=2 / keyint=250 / keyint_min=25 / scenecut=40 / intra_refresh=0 / rc=2pass / mbtree=0 / bitrate=1525 / ratetol=1.0 / qcomp=0.60 / qpmin=0 / qpmax=69 / qpstep=4 / cplxblur=20.0 / qblur=0.5 / ip_ratio=1.40 / pb_ratio=1.30 / aq=1:1.00
Default : Да
Forced : Нет

Аудио
Идентификатор : 2
Формат : AC-3
Формат/Информация : Audio Coding 3
Коммерческое название : Dolby Digital
Идентификатор кодека : A_AC3
Продолжительность : 1 ч. 30 м.
Вид битрейта : Постоянный
Битрейт : 192 Кбит/сек
Каналы : 2 канала
ChannelLayout : L R
Частота : 48,0 КГц
Частота кадров : 31,250 кадров/сек (1536 SPF)
Битовая глубина : 16 бит
Метод сжатия : С потерями
Размер потока : 125 Мбайт (11%)
Default : Да
Forced : Нет

Информация о торренте:
Размер содержимого: 1.1 GB
Скачан: 150 раз
Статус: Проверен
Зарегистрирован на трекере: 2020-02-02 13:18
Скачать торрент


Поддержи раздачу — поставь лайк:
BLIZNEC W
2020-02-02 13:18
Интересного и приятного просмотра!!!

Мои раздачи
Писать комментарии на нашем торрент-трекере могут только зарегистрированные пользователи.
Зарегистрируйтесь или авторизируйтесь на сайте.