»
»

Скачать фильм Кого мы больше любим (Зейнаб Казимова, Ариф Бабаев, Гасан Сеидбейли) / [1964, киноальманах, WEB-DLRip-HEVC] - торрент

Скачать бесплатный торрент фильм. Фильм доступен на нашем торрент-трекере бесплатно, без регистрации и смс.

Статистика раздачи
0 [ 0 b/s ] ↑ 1.1 GB ↓ 0 [ 0 b/s ]
Автор Сообщение
BLIZNEC W
2020-02-01 15:13
Кого мы больше любим
Кого мы больше любим Формат: WEB-DLRip-HEVC, MKV, H.265, AAC
Режиссер: Зейнаб Казимова, Ариф Бабаев, Гасан Сеидбейли
Жанр: киноальманах
Продолжительность: 01:15:08
Год выпуска: 1964

В ролях: Тамилла Гафарова, Гасан Мамедов, Тамилла Рустамова-Крастыньш, Рена Салимова, Эльхан Касумов, Гамлет Курбанов, Афрасияб Мамедов, Юсиф Велиев, Борис Левкович, Мурад Меликов, Исмаил Эфендиев, Хаял Ахундзаде, Мелик Дадашев, Джейхун (Джейк) Мирзоев, Талят Рахманов, Земфира Садыхова, Фирудин Мехтиев, Джаббар Алиев, Лейла Шихлинская

Описание: Киноальманах посвящен спортсменам. Три новеллы ("Через горный лес", "Вершина", Сила притяжения") рассказывают о взаимной выручке, дружбе, общественном долге и становлении характера настоящего человека.

Рейтинг и доп. информация:


Видео: 712->760х570, (4:3), 25 fps, HEVC MPEGH (x265), Main@L3@Main ~ 1946 kbps , 0.190 bit/pixel
Аудио: 48 kHz, AAC, 2 ch (L R), ~ 128 Kbps avg
MediaInfo
Общее
Полное имя : Kogo.my.bolshe.lyubim.1964.WEB-DLRip-HEVC_[New-team]_by_AVP_Studio.mkv
Формат : Matroska
Версия формата : Version 4
Размер файла : 1,09 Гбайт
Продолжительность : 1 ч. 15 м.
Общий поток : 2076 Кбит/сек
Дата кодирования : UTC 2020-02-01 08:40:57
Программа кодирования : mkvmerge v43.0.0 ('The Quartermaster') 64-bit
Библиотека кодирования : libebml v1.3.10 + libmatroska v1.5.2

Видео
Идентификатор : 1
Формат : HEVC
Формат/Информация : High Efficiency Video Coding
Профиль формата : Main@L3@Main
Идентификатор кодека : V_MPEGH/ISO/HEVC
Продолжительность : 1 ч. 15 м.
Битрейт : 1946 Кбит/сек
Ширина : 712 пикселей
Высота : 570 пикселей
Высота оригинала : 570 пикселей
Соотношение сторон : 4:3
Соотношение сторон в оригинале : 4:3
Режим частоты кадров : Постоянный
Частота кадров : 25,000 кадров/сек
Цветовое пространство : YUV
Субдискретизация насыщенности : 4:2:0
Битовая глубина : 8 бит
Бит/(Пиксели*Кадры) : 0.190
Размер потока : 1,02 Гбайт (94%)
Язык : Russian
Default : Да
Forced : Нет

Аудио
Идентификатор : 2
Формат : AAC LC
Формат/Информация : Advanced Audio Codec Low Complexity
Идентификатор кодека : A_AAC-2
Продолжительность : 1 ч. 15 м.
Битрейт : 128 Кбит/сек
Каналы : 2 канала
ChannelLayout : L R
Частота : 48,0 КГц
Частота кадров : 46,875 кадров/сек (1024 SPF)
Метод сжатия : С потерями
Задержка видео : 9 мс.
Размер потока : 68,8 Мбайт (6%)
Язык : Russian
Default : Да
Forced : Нет

Информация о торренте:
Размер содержимого: 1.1 GB
Скачан: 139 раз
Статус: Проверен
Зарегистрирован на трекере: 2020-02-01 14:13
Скачать торрент


Поддержи раздачу — поставь лайк:
BLIZNEC W
2020-02-01 14:13
Интересного и приятного просмотра!!!

Мои раздачи
Писать комментарии на нашем торрент-трекере могут только зарегистрированные пользователи.
Зарегистрируйтесь или авторизируйтесь на сайте.