»
»

Скачать фильм Кого мы больше любим (Зейнаб Казимова, Ариф Бабаев, Гасан Сеидбейли) / [1964, киноальманах, WEB-DLRip-AVC] - торрент

Скачать фильм через торрент бесплатно. Фильм доступен на нашем торрент-трекере бесплатно, без регистрации и смс.

Статистика раздачи
0 [ 0 b/s ] ↑ 1.1 GB ↓ 0 [ 0 b/s ]
Автор Сообщение
BLIZNEC W
2020-02-01 15:13
Кого мы больше любим
Кого мы больше любим Формат: WEB-DLRip-AVC, MKV, H.264, AC3
Режиссер: Зейнаб Казимова, Ариф Бабаев, Гасан Сеидбейли
Жанр: киноальманах
Продолжительность: 01:15:08
Год выпуска: 1964

В ролях: Тамилла Гафарова, Гасан Мамедов, Тамилла Рустамова-Крастыньш, Рена Салимова, Эльхан Касумов, Гамлет Курбанов, Афрасияб Мамедов, Юсиф Велиев, Борис Левкович, Мурад Меликов, Исмаил Эфендиев, Хаял Ахундзаде, Мелик Дадашев, Джейхун (Джейк) Мирзоев, Талят Рахманов, Земфира Садыхова, Фирудин Мехтиев, Джаббар Алиев, Лейла Шихлинская

Описание: Киноальманах посвящен спортсменам. Три новеллы ("Через горный лес", "Вершина", Сила притяжения") рассказывают о взаимной выручке, дружбе, общественном долге и становлении характера настоящего человека.

Рейтинг и доп. информация:


Видео: 712->760х570, (4:3), 25 fps, AVC MPEG-4 (x264), High@L3 ~ 1881 kbps , 0.185 bit/pixel
Аудио: 48 kHz, AC3, 2/0 (L,R) ch, ~192 kbps
MediaInfo
Общее
Полное имя : Kogo.my.bolshe.lyubim.1964.WEB-DLRip-AVC_[New-team]_by_AVP_Studio.mkv
Формат : Matroska
Версия формата : Version 2
Размер файла : 1,09 Гбайт
Продолжительность : 1 ч. 15 м.
Общий поток : 2075 Кбит/сек
Дата кодирования : UTC 2020-01-31 10:49:20
Программа кодирования : mkvmerge v6.9.1 ('Blue Panther') 32bit built on Apr 18 2014 18:15:44
Библиотека кодирования : libebml v1.3.0 + libmatroska v1.4.1

Видео
Идентификатор : 1
Формат : AVC
Формат/Информация : Advanced Video Codec
Профиль формата : High@L3
Настройки формата : CABAC / 4 Ref Frames
Параметр CABAC формата : Да
Параметр RefFrames формата : 4 кадра
Идентификатор кодека : V_MPEG4/ISO/AVC
Продолжительность : 1 ч. 15 м.
Битрейт : 1881 Кбит/сек
Ширина : 712 пикселей
Высота : 570 пикселей
Соотношение сторон : 4:3
Режим частоты кадров : Постоянный
Частота кадров : 25,000 кадров/сек
Цветовое пространство : YUV
Субдискретизация насыщенности : 4:2:0
Битовая глубина : 8 бит
Тип развёртки : Прогрессивная
Бит/(Пиксели*Кадры) : 0.185
Размер потока : 990 Мбайт (89%)
Библиотека кодирования : x264 core 159 r2991 1771b55
Настройки программы : cabac=1 / ref=3 / deblock=1:0:0 / analyse=0x3:0x113 / me=hex / subme=7 / psy=1 / psy_rd=1.00:0.00 / mixed_ref=1 / me_range=16 / chroma_me=1 / trellis=1 / 8x8dct=1 / cqm=0 / deadzone=21,11 / fast_pskip=1 / chroma_qp_offset=-2 / threads=6 / lookahead_threads=1 / sliced_threads=0 / nr=0 / decimate=1 / interlaced=0 / bluray_compat=0 / constrained_intra=0 / bframes=3 / b_pyramid=2 / b_adapt=1 / b_bias=0 / direct=1 / weightb=1 / open_gop=0 / weightp=2 / keyint=250 / keyint_min=25 / scenecut=40 / intra_refresh=0 / rc_lookahead=40 / rc=2pass / mbtree=1 / bitrate=1881 / ratetol=1.0 / qcomp=0.60 / qpmin=0 / qpmax=69 / qpstep=4 / cplxblur=20.0 / qblur=0.5 / ip_ratio=1.40 / aq=1:1.00
Default : Да
Forced : Нет

Аудио
Идентификатор : 2
Формат : AC-3
Формат/Информация : Audio Coding 3
Коммерческое название : Dolby Digital
Идентификатор кодека : A_AC3
Продолжительность : 1 ч. 15 м.
Вид битрейта : Постоянный
Битрейт : 192 Кбит/сек
Каналы : 2 канала
ChannelLayout : L R
Частота : 48,0 КГц
Частота кадров : 31,250 кадров/сек (1536 SPF)
Битовая глубина : 16 бит
Метод сжатия : С потерями
Размер потока : 103 Мбайт (9%)
Default : Да
Forced : Нет

Информация о торренте:
Размер содержимого: 1.1 GB
Скачан: 131 раз
Статус: Проверен
Зарегистрирован на трекере: 2020-02-01 14:13
Скачать торрент


Поддержи раздачу — поставь лайк:
BLIZNEC W
2020-02-01 14:13
Интересного и приятного просмотра!!!

Мои раздачи
Писать комментарии на нашем торрент-трекере могут только зарегистрированные пользователи.
Зарегистрируйтесь или авторизируйтесь на сайте.