»
»

Скачать фильм Непонятый / Недопонимание / Misunderstood (Джерри Шацберг) [1984, драма, HDTVRip 1080p] AVO - торрент

Бесплатные торренты всегда на нашем сайте и в хорошем качестве! Фильм доступен на нашем торрент-трекере бесплатно, без регистрации и смс.

Статистика раздачи
0 [ 0 b/s ] ↑ 5.3 GB ↓ 0 [ 0 b/s ]
Автор Сообщение
makkaronni
2020-02-01 14:05
Непонятый / Недопонимание / Misunderstood

Непонятый / Недопонимание / Misunderstood

Перевод: Авторский одноголосый (Антон Алексеев)
Субтитры: отсутствуют
Формат: HDTVRip, MKV, H.264, AC3
Страна: Италия, США
Режиссер: Джерри Шацберг
Жанр: драма
Продолжительность: 01:30:53
Год выпуска: 1984

В ролях: Джин Хэкмен, Генри Томас, Рип Торн, Хаклберри Фокс, Морин Кервин, Сьюзен Энспак, Джун Браун, Хелен Райан, Надим Савалха, Нидал Ал-Асхар, Халед Экрут, Раджа Гафси

Описание: Успешный судоходный магнат Нед Роули только что стал вдовцом, и теперь он должен воспитывать своих маленьких сыновей Эндрю и Майлза сам. Но Неду, который не очень хорошо знает своих детей, приходится нелегко. Римейк одноимённого фильма Луиджи Коменчини 1966 года.

[imdb=https://www.imdb.com/title/tt0087730/]

Видео: 1792x1076p (5:3), 25 fps, MPEG-4 AVC High@L4.1 (x264) ~7922 kbps avg, 0.164 bit/pixel
Аудио #1: Русский: 48 kHz, AC3 Dolby Digital, 2/0 (L,R) ch, ~192 kbps avg [Авторский одноголосый]
Аудио #2: Английский: 48 kHz, AC3 Dolby Digital, 2/0 (L,R) ch, ~192 kbps avg [Оригинал]

MediaInfo
Общее
Уникальный идентификатор : 221163464669119382101306690718747078501 (0xA66288AF0D18108AF12FDA1ACF082F65)
Полное имя : Misunderstood.1984.HDTVRip.1080p.mkv
Формат : Matroska
Версия формата : Version 4
Размер файла : 5,27 Гбайт
Продолжительность : 1 ч. 30 м.
Общий поток : 8308 Кбит/сек
Программа кодирования : XviD4PSP 8.0.91
Библиотека кодирования : Lavf58.20.100
ErrorDetectionType : Per level 1

Видео
Идентификатор : 1
Формат : AVC
Формат/Информация : Advanced Video Codec
Профиль формата : High@L4.1
Настройки формата : CABAC / 4 Ref Frames
Параметр CABAC формата : Да
Параметр RefFrames формата : 4 кадра
Идентификатор кодека : V_MPEG4/ISO/AVC
Продолжительность : 1 ч. 30 м.
Битрейт : 7922 Кбит/сек
Ширина : 1792 пикселя
Высота : 1076 пикселей
Соотношение сторон : 5:3
Режим частоты кадров : Постоянный
Частота кадров : 25,000 кадров/сек
Цветовое пространство : YUV
Субдискретизация насыщенности : 4:2:0
Битовая глубина : 8 бит
Тип развёртки : Прогрессивная
Бит/(Пиксели*Кадры) : 0.164
Размер потока : 4,93 Гбайт (93%)
Библиотека кодирования : x264 core 157 r2958 57baac4
Настройки программы : cabac=1 / ref=4 / deblock=1:-3:-3 / analyse=0x3:0x113 / me=umh / subme=9 / psy=1 / psy_rd=1.00:0.00 / mixed_ref=1 / me_range=32 / chroma_me=1 / trellis=1 / 8x8dct=1 / cqm=0 / deadzone=21,11 / fast_pskip=1 / chroma_qp_offset=-2 / threads=17 / lookahead_threads=2 / sliced_threads=0 / nr=0 / decimate=1 / interlaced=0 / bluray_compat=0 / constrained_intra=0 / bframes=7 / b_pyramid=2 / b_adapt=2 / b_bias=0 / direct=3 / weightb=1 / open_gop=0 / weightp=2 / keyint=250 / keyint_min=25 / scenecut=40 / intra_refresh=0 / rc_lookahead=40 / rc=2pass / mbtree=1 / bitrate=7922 / ratetol=1.0 / qcomp=0.60 / qpmin=0 / qpmax=69 / qpstep=4 / cplxblur=20.0 / qblur=0.5 / ip_ratio=1.40 / aq=1:1.00
Default : Да
Forced : Нет
Цветовой диапазон : Limited
Основные цвета : BT.709
Характеристики трансфера : BT.709
Коэффициенты матрицы : BT.709

Аудио #1
Идентификатор : 2
Формат : AC-3
Формат/Информация : Audio Coding 3
Коммерческое название : Dolby Digital
Идентификатор кодека : A_AC3
Продолжительность : 1 ч. 30 м.
Вид битрейта : Постоянный
Битрейт : 192 Кбит/сек
Каналы : 2 канала
ChannelLayout : L R
Частота : 48,0 КГц
Частота кадров : 31,250 кадров/сек (1536 SPF)
Битовая глубина : 16 бит
Метод сжатия : С потерями
Размер потока : 125 Мбайт (2%)
Заголовок : Алексеев
Язык : Russian
ServiceKind : Complete Main
Default : Да
Forced : Нет

Аудио #2
Идентификатор : 3
Формат : AC-3
Формат/Информация : Audio Coding 3
Коммерческое название : Dolby Digital
Идентификатор кодека : A_AC3
Продолжительность : 1 ч. 30 м.
Вид битрейта : Постоянный
Битрейт : 192 Кбит/сек
Каналы : 2 канала
ChannelLayout : L R
Частота : 48,0 КГц
Частота кадров : 31,250 кадров/сек (1536 SPF)
Битовая глубина : 16 бит
Метод сжатия : С потерями
Размер потока : 125 Мбайт (2%)
Язык : English
ServiceKind : Complete Main
Default : Нет
Forced : Нет

Информация о торренте:
Размер содержимого: 5.3 GB
Скачан: 186 раз
Статус: Проверен
Зарегистрирован на трекере: 2020-02-01 13:05
Скачать торрент


Поддержи раздачу — поставь лайк:
Писать комментарии на нашем торрент-трекере могут только зарегистрированные пользователи.
Зарегистрируйтесь или авторизируйтесь на сайте.