»
»

Скачать сериал Д.Д.Д. Досье детектива Дубровского (1-18 серии из 18) (Александр Муратов) / [1999, детектив, криминал, WEB-DL 1080p] - торрент

Бесплатные торренты всегда на нашем сайте и в хорошем качестве! Сериал доступен на нашем торрент-трекере бесплатно, без регистрации и смс.

Статистика раздачи
0 [ 0 b/s ] ↑ 19.9 GB ↓ 0 [ 0 b/s ]
Автор Сообщение
BLIZNEC W
2020-01-22 18:59
Д.Д.Д. Досье детектива Дубровского (1-18 серии из 18)
Д.Д.Д. Досье детектива Дубровского Перевод: Не требуется, cубтитры: отсутствуют
Формат: WEB-DL 1080p, MKV, H.264, AAC
Страна: Россия
Режиссер: Александр Муратов
Жанр: детектив, криминал, экранизация
Всего серий: 18
Продолжительность: 18 x ~ 00:50:00
Год выпуска: 1999

В ролях: Николай Караченцов, Елена Проклова, Александр Феклистов, Сергей Степанченко, Владимир Ерёмин, Сергей Гармаш, Валерий Баринов, Владимир Стержаков, Ольга Будина, Валерий Гаркалин, Сергей Шкаликов, Алексей Булдаков, Дмитрий Брусникин, Василий Мищенко, Юрий Петров (II), Борис Щербаков, Михаил Филиппов, Юрий Беляев, Владимир Меньшов, Александр Сирин, Светлана Рябова, Антон Андросов, Игорь Ясулович, Алексей Кравченко, Михаил Ульянов, Евгения Крюкова, Анна Яновская, Владимир Стеклов, Мамука Кикалейшвили, Игорь Воробьёв, Владимир Бадов, Николай Кочегаров, Александр Белявский, Владимир Фокин, Борис Токарев, Наталья Гончарова, Дмитрий Марьянов, Сергей Векслер, Александр Дедюшко, Борис Клюев, Евгений Дворжецкий, Николай Волков (младший), Владимир Пивоваров, Вячеслав Гришечкин, Михаил Ефремов, Александр Ильин, Андрей Ильин, Александр Хотченков, Валерий Ярёменко, Сергей Габриэлян, Юрий Кузьменков, Алексей Якубов, Фёдор Добронравов, Сергей Баталов, Валерий Афанасьев, Александр Мохов, Вадим Александров, Ирина Бякова, Илья Рутберг, Владимир Сальников (II), Анжелика Варум, Лембит Ульфсак, Ирина Хакамада

Описание: По мотивам романа-бестселлера Льва Гурского "Перемена мест". Детектив Роман Дубровский, бывший сотрудник МУРа, оказывается втянутым в чудовищную политическую интригу, затрагивающую интересы самых влиятельных людей страны: ФСБ подозревает его в совершении убийства, его преследует разъяренная банда фальшивомонетчиков. Ему практически в одиночку приходится противостоять могущественной преступной корпорации, рвущейся к вершинам власти. Он играет в кошки-мышки с преступниками, взламывает сейфы и спасает очаровательных женщин. Его жизнь наполнена погонями, перестрелками и страшными тайнами…

Рейтинг и доп. информация:


Видео: 1280х960, (4:3), 25 fps, AVC MPEG-4 (x264), High@L3.1 ~ 2550 kbps , 0.083 bit/pixel
Аудио: 48 kHz, AAC, 2 ch (L R), ~ 192 Kbps avg
MediaInfo
Общее
Уникальный идентификатор : 29527408122819448747014152892458527223 (0x1636C59E68D909612FC4D576BB54E9F7)
Полное имя : C:\Users\ADMIN\Desktop\Новая папка\Досье Детектива Дубровского\Досье Детектива Дубровского (01 сер.) - web-dl1080p.mkv
Формат : Matroska
Версия формата : Version 4
Размер файла : 1,02 Гбайт
Продолжительность : 52 м. 2 с.
Общий поток : 2809 Кбит/сек
Дата кодирования : UTC 2020-01-19 06:35:47
Программа кодирования : mkvmerge v42.0.0 ('Overtime') 64-bit
Библиотека кодирования : libebml v1.3.10 + libmatroska v1.5.2

Видео
Идентификатор : 1
Формат : AVC
Формат/Информация : Advanced Video Codec
Профиль формата : High@L3.1
Настройки формата : CABAC / 4 Ref Frames
Параметр CABAC формата : Да
Параметр RefFrames формата : 4 кадра
Идентификатор кодека : V_MPEG4/ISO/AVC
Продолжительность : 52 м. 2 с.
Битрейт : 2550 Кбит/сек
Номинальный битрейт : 3000 Кбит/сек
Ширина : 1280 пикселей
Высота : 960 пикселей
Соотношение сторон : 4:3
Режим частоты кадров : Постоянный
Частота кадров : 25,000 кадров/сек
Цветовое пространство : YUV
Субдискретизация насыщенности : 4:2:0
Битовая глубина : 8 бит
Тип развёртки : Прогрессивная
Бит/(Пиксели*Кадры) : 0.083
Размер потока : 950 Мбайт (91%)
Библиотека кодирования : x264 core 148 r2721 72d53ab
Настройки программы : cabac=1 / ref=3 / deblock=1:0:0 / analyse=0x3:0x133 / me=umh / subme=10 / psy=1 / psy_rd=1.00:0.00 / mixed_ref=1 / me_range=24 / chroma_me=1 / trellis=2 / 8x8dct=1 / cqm=0 / deadzone=21,11 / fast_pskip=1 / chroma_qp_offset=-2 / threads=30 / lookahead_threads=5 / sliced_threads=0 / nr=0 / decimate=1 / interlaced=0 / bluray_compat=0 / constrained_intra=0 / bframes=8 / b_pyramid=2 / b_adapt=2 / b_bias=0 / direct=3 / weightb=1 / open_gop=0 / weightp=2 / keyint=100 / keyint_min=50 / scenecut=40 / intra_refresh=0 / rc_lookahead=60 / rc=2pass / mbtree=1 / bitrate=3000 / ratetol=1.0 / qcomp=0.60 / qpmin=0 / qpmax=69 / qpstep=4 / cplxblur=20.0 / qblur=0.5 / vbv_maxrate=3300 / vbv_bufsize=560 / nal_hrd=none / filler=0 / ip_ratio=1.40 / aq=1:1.00
Default : Да
Forced : Нет

Аудио
Идентификатор : 2
Формат : AAC LC
Формат/Информация : Advanced Audio Codec Low Complexity
Идентификатор кодека : A_AAC-2
Продолжительность : 52 м. 2 с.
Битрейт : 253 Кбит/сек
Каналы : 2 канала
ChannelLayout : L R
Частота : 48,0 КГц
Частота кадров : 46,875 кадров/сек (1024 SPF)
Метод сжатия : С потерями
Размер потока : 94,3 Мбайт (9%)
Default : Да
Forced : Нет

Информация о торренте:
Размер содержимого: 19.9 GB
Скачан: 270 раз
Статус: Проверен
Зарегистрирован на трекере: 2020-01-22 17:59
Скачать торрент


Поддержи раздачу — поставь лайк:
BLIZNEC W
2020-01-22 18:00
Интересного и приятного просмотра!!!

Мои раздачи
slavon35
2020-01-22 18:06
Смотрел очень давно по ТВ. Норм.
Писать комментарии на нашем торрент-трекере могут только зарегистрированные пользователи.
Зарегистрируйтесь или авторизируйтесь на сайте.