»
»

Скачать сериал Отчим (1-16 серии из 16) (Сергей Гинзбург) / [2019, драма, история, WEB-DL 1080p] - торрент

Торрент можно скачать, нажав синюю кнопку ниже. Сериал доступен на нашем торрент-трекере бесплатно, без регистрации и смс.

Статистика раздачи
0 [ 0 b/s ] ↑ 29.8 GB ↓ 0 [ 0 b/s ]
Автор Сообщение
BLIZNEC W
2020-01-21 17:30
Отчим (1-16 серии из 16)
Отчим Перевод: Не требуется, cубтитры: отсутствуют
Формат: WEB-DL 1080p, MKV, H.264, AAC
Страна: Россия
Режиссер: Сергей Гинзбург
Жанр: драма, история
Всего серий: 16
Продолжительность: 16 x ~ 00:50:00
Год выпуска: 2019

В ролях: Карина Андоленко, Антон Хабаров, Александр Бухаров, Владимир Гостюхин, Василий Бочкарёв, Татьяна Орлова, Артём Быстров, Ксения Теплова, Алексей Колган, Вильма Кутавичюте, Юрий Степанов (младший), Сергей Ходьков, Никита Манец, Роман Евдокимов, Елизавета Бугулова, Василиса Измайлова, Таисья Калинина, Ольга Веникова, Сергей Соцердотский, Анастасия Липянская, Аскар Нигамедзянов, Алиса Лозовская, Анатолий Голуб, Юлия Кадушкевич, Сергей Власов (II), Вероника Пляшкевич, Марина Поддубная, Ефим Цуба, Анна Гиренок, Виктор Молчан, Владимир Грицевский, Александр Гусев (V), Зинаида Зубкова, Сергей Прокопич, Андрей Дробыш, Сергей Савенков, Олег Ткачёв, Ольга Бурлакова, Людмила Разумова, Валерий Шушкевич, Валерий Бервольд, Анастасия Щербакова (III), Алексей Юцкевич, Сергей Юревич, Максим Брагинец, Константин Конюхов, Лариса Карасина, Александр Пашкевич, Андрей Сенькин, Анатолий Терпицкий, Владимир Гороховский, Олеся Пуховая, Анастасия Знаменщикова, Александр Кашперов (II), Игорь Сигов, Михаил Цуба, Светлана Никифорова, Жанна Яцевич, Сергей Чуб, Александр Бранкевич, Кирилл Новицкий…

Описание: История начинается в 1952 году, в сибирской глубинке: первая красавица посёлка Настя семь лет ждёт мужа с фронта. Её жалеют, но за спиной шепчутся: чего ждать, кому было суждено прийти – пришли…. Однажды ночью в дом Насти стучится новый председатель местного крайкома партии - молодой, галантный мужчина Игорь Галицкий. Эта встреча становится судьбоносной. Вместе они пройдут трудные испытания, их истинное, глубокое и взаимное чувство преодолеет «проверку на прочность». И первым таким испытанием станет внезапное возвращение Ивана, мужа Насти. Тайна, которую он скрывает, еще больше разделяет его с семьей и делает жизнь главной героини невыносимой. Суровое время беспощадно. По доносу снят с поста и арестован самый дорогой для Насти человек – Игорь. На фоне драматических событий, разыгрывающихся в стране, героям саги предстоит проделать нелегкий путь, чтобы обрести простое и такое хрупкое cчастье.

Рейтинг и доп. информация:


Видео: 1920x1080, (16:9), 25 fps, AVC MPEG-4 (x264), High@L4 ~ 5000 kbps , 0.096 bit/pixel
Аудио: 48 kHz, AAC, 2 ch (L R), ~ 250 Kbps avg
MediaInfo
Общее
Уникальный идентификатор : 280067353094627405610158790341291649280 (0xD2B3029AF616FD061253429630DBA900)
Полное имя : C:\Отчим\Отчим (01 сер.) - web-dl1080p.mkv
Формат : Matroska
Версия формата : Version 4
Размер файла : 1,87 Гбайт
Продолжительность : 52 м. 5 с.
Общий поток : 5149 Кбит/сек
Дата кодирования : UTC 2020-01-19 12:33:24
Программа кодирования : mkvmerge v42.0.0 ('Overtime') 64-bit
Библиотека кодирования : libebml v1.3.10 + libmatroska v1.5.2

Видео
Идентификатор : 1
Формат : AVC
Формат/Информация : Advanced Video Codec
Профиль формата : High@L4
Настройки формата : CABAC / 4 Ref Frames
Параметр CABAC формата : Да
Параметр RefFrames формата : 4 кадра
Идентификатор кодека : V_MPEG4/ISO/AVC
Продолжительность : 52 м. 5 с.
Битрейт : 5000 Кбит/сек
Ширина : 1920 пикселей
Высота : 1080 пикселей
Соотношение сторон : 16:9
Режим частоты кадров : Постоянный
Частота кадров : 25,000 кадров/сек
Цветовое пространство : YUV
Субдискретизация насыщенности : 4:2:0
Битовая глубина : 8 бит
Тип развёртки : Прогрессивная
Бит/(Пиксели*Кадры) : 0.096
Размер потока : 1,78 Гбайт (95%)
Библиотека кодирования : x264 core 148 r2721 72d53ab
Настройки программы : cabac=1 / ref=4 / deblock=1:0:0 / analyse=0x3:0x133 / me=umh / subme=10 / psy=1 / psy_rd=1.00:0.00 / mixed_ref=1 / me_range=24 / chroma_me=1 / trellis=2 / 8x8dct=1 / cqm=0 / deadzone=21,11 / fast_pskip=1 / chroma_qp_offset=-2 / threads=34 / lookahead_threads=5 / sliced_threads=0 / nr=0 / decimate=1 / interlaced=0 / bluray_compat=0 / constrained_intra=0 / bframes=8 / b_pyramid=2 / b_adapt=2 / b_bias=0 / direct=3 / weightb=1 / open_gop=0 / weightp=2 / keyint=100 / keyint_min=50 / scenecut=40 / intra_refresh=0 / rc_lookahead=60 / rc=2pass / mbtree=1 / bitrate=5000 / ratetol=1.0 / qcomp=0.60 / qpmin=0 / qpmax=69 / qpstep=4 / cplxblur=20.0 / qblur=0.5 / vbv_maxrate=5500 / vbv_bufsize=2500 / nal_hrd=none / filler=0 / ip_ratio=1.40 / aq=1:1.00
Default : Да
Forced : Нет

Аудио
Идентификатор : 2
Формат : AAC LC
Формат/Информация : Advanced Audio Codec Low Complexity
Идентификатор кодека : A_AAC-2
Продолжительность : 52 м. 5 с.
Битрейт : 247 Кбит/сек
Каналы : 2 канала
ChannelLayout : L R
Частота : 48,0 КГц
Частота кадров : 46,875 кадров/сек (1024 SPF)
Метод сжатия : С потерями
Размер потока : 92,1 Мбайт (5%)
Default : Да
Forced : Нет

Информация о торренте:
Размер содержимого: 29.8 GB
Скачан: 372 раза
Статус: Проверен
Зарегистрирован на трекере: 2020-01-21 16:30
Скачать торрент


Поддержи раздачу — поставь лайк:
BLIZNEC W
2020-01-21 16:31
Интересного и приятного просмотра!!!

Мои раздачи
Писать комментарии на нашем торрент-трекере могут только зарегистрированные пользователи.
Зарегистрируйтесь или авторизируйтесь на сайте.