»
»

Скачать сериал Знахарь (1-16 серии из 16) (Ярослав Мочалов) / [2018, драма, мелодрама, WEB-DL 1080p] - торрент

Скачать торрент сериал можно, нажав на синюю кнопку ниже. Сериал доступен на нашем торрент-трекере бесплатно, без регистрации и смс.

Статистика раздачи
0 [ 0 b/s ] ↑ 29.2 GB ↓ 0 [ 0 b/s ]
Автор Сообщение
BLIZNEC W
2020-01-20 18:50
Знахарь (1-16 серии из 16)
Знахарь Перевод: Не требуется, cубтитры: отсутствуют
Формат: WEB-DL 1080p, MKV, H.264, AAC
Страна: Россия
Режиссер: Ярослав Мочалов
Жанр: драма, мелодрама
Всего серий: 16
Продолжительность: 16 x ~ 00:50:00
Год выпуска: 2018

В ролях: Даниил Страхов, Екатерина Кузнецова (II), Николай Иванов (II), Юрий Ицков, Владимир Матвеев, Валерий Гришко, Александра Мареева, Леонид Громов, Хельга Филиппова, Артём Карасев, Александр Кононец, Олег Ерёмин, Светлана Смирнова-Марцинкевич, Павел Чинарёв, Андрей Ташков, Сергей Колос, Мария Жиганова, Валерия Орлова, Глеб Степан Каллистов, Мария Фефилова, Дмитрий Гирев, Светлана Степанковская, Алексей Парасевич, Юлия Марченко, Александр Муравицкий, Алексей Труфанов, Евгений Карпов, Ольга Кожевникова, Наталья Ткаченко, Анатолий Петров, Михаил Сиворин, Михаил Соловьёв, Георгий Маришин, Владимир Петров (VIII), Денис Пьянов, Арсений Семёнов, Аркадий Волгин, Сергей Интяков, Татьяна Захарова, Любовь Макеева, Алла Еминцева, Мэри Ваха, Геннадий Блинов, Владимир Шабельников, Яков Шамшин, Виталий Горев, Анна Дулова, Татьяна Маколова, Светлана Киреева, Валерий Саломахин, Александр Семёнов (III), Валерий Дьяченко, Виталия Касаткина, Виктор Выбриенко, Василий Щипицын, Анна Геллер, Александр Черкашин, Алексей Потёмкин, Екатерина Суворова, Александр Габов, Виталий Гудков, Павел Григорьев, Виталий Кононов, Александр Плаксин, Юлия Дейнега, Алёна Митюшкина, Павел Исайкин, Сергей Евсеев, Владимир Артёмов, Константин Клюквин

Описание: Молодой и талантливый нейрохирург Павел Андреев возвращается в Петербург после учебы за границей и устраивается работать в отделение больницы, начальник которого – его бывший учитель. Не все в больнице рады внезапному появлению Павла – его главным конкурентом становится бывший однокурсник Сергей Стрельников. Вне работы жизнь главного героя также непростая: его начальник Николай Семенов просит его провести сложную операцию и удалить запущенную опухоль, а параллельно у молодого врача начинается роман с дочерью Семенова. Всю жизнь Андреева переворачивает несчастный случай, в результате которого он теряет память, но не способность помогать людям.

Рейтинг и доп. информация:


Видео: 1920x1080, (16:9), 25 fps, AVC MPEG-4 (x264), High@L4.1 ~ 5000 kbps , 0.096 bit/pixel
Аудио: 48 kHz, AAC, 2 ch (L R), ~ 192 Kbps avg
MediaInfo
Общее
Уникальный идентификатор : 272115067426349988933042460328804013192 (0xCCB774A6A0AC9C9F749D4DF53D5CD488)
Полное имя : C:\Знахарь\Знахарь (01 сер.) - web-dl1080p.mkv
Формат : Matroska
Версия формата : Version 4
Размер файла : 1,84 Гбайт
Продолжительность : 51 м. 41 с.
Общий поток : 5098 Кбит/сек
Дата кодирования : UTC 2020-01-19 09:49:15
Программа кодирования : mkvmerge v42.0.0 ('Overtime') 64-bit
Библиотека кодирования : libebml v1.3.10 + libmatroska v1.5.2

Видео
Идентификатор : 1
Формат : AVC
Формат/Информация : Advanced Video Codec
Профиль формата : High@L4
Настройки формата : CABAC / 4 Ref Frames
Параметр CABAC формата : Да
Параметр RefFrames формата : 4 кадра
Идентификатор кодека : V_MPEG4/ISO/AVC
Продолжительность : 51 м. 41 с.
Битрейт : 5000 Кбит/сек
Ширина : 1920 пикселей
Высота : 1080 пикселей
Соотношение сторон : 16:9
Режим частоты кадров : Постоянный
Частота кадров : 25,000 кадров/сек
Цветовое пространство : YUV
Субдискретизация насыщенности : 4:2:0
Битовая глубина : 8 бит
Тип развёртки : Прогрессивная
Бит/(Пиксели*Кадры) : 0.096
Размер потока : 1,75 Гбайт (95%)
Библиотека кодирования : x264 core 148 r2721 72d53ab
Настройки программы : cabac=1 / ref=4 / deblock=1:0:0 / analyse=0x3:0x133 / me=umh / subme=10 / psy=1 / psy_rd=1.00:0.00 / mixed_ref=1 / me_range=24 / chroma_me=1 / trellis=2 / 8x8dct=1 / cqm=0 / deadzone=21,11 / fast_pskip=1 / chroma_qp_offset=-2 / threads=34 / lookahead_threads=5 / sliced_threads=0 / nr=0 / decimate=1 / interlaced=0 / bluray_compat=0 / constrained_intra=0 / bframes=8 / b_pyramid=2 / b_adapt=2 / b_bias=0 / direct=3 / weightb=1 / open_gop=0 / weightp=2 / keyint=100 / keyint_min=50 / scenecut=40 / intra_refresh=0 / rc_lookahead=60 / rc=2pass / mbtree=1 / bitrate=5000 / ratetol=1.0 / qcomp=0.60 / qpmin=0 / qpmax=69 / qpstep=4 / cplxblur=20.0 / qblur=0.5 / vbv_maxrate=5500 / vbv_bufsize=2500 / nal_hrd=none / filler=0 / ip_ratio=1.40 / aq=1:1.00
Default : Да
Forced : Нет

Аудио
Идентификатор : 2
Формат : AAC LC
Формат/Информация : Advanced Audio Codec Low Complexity
Идентификатор кодека : A_AAC-2
Продолжительность : 51 м. 41 с.
Битрейт : 248 Кбит/сек
Каналы : 2 канала
ChannelLayout : L R
Частота : 48,0 КГц
Частота кадров : 46,875 кадров/сек (1024 SPF)
Метод сжатия : С потерями
Размер потока : 91,8 Мбайт (5%)
Default : Да
Forced : Нет

Информация о торренте:
Размер содержимого: 29.2 GB
Скачан: 299 раз
Статус: Проверен
Зарегистрирован на трекере: 2020-01-20 17:50
Скачать торрент


Поддержи раздачу — поставь лайк:
BLIZNEC W
2020-01-20 17:50
Интересного и приятного просмотра!!!

Мои раздачи
Писать комментарии на нашем торрент-трекере могут только зарегистрированные пользователи.
Зарегистрируйтесь или авторизируйтесь на сайте.