»
»

Скачать сериал Тест на беременность (1 сезон 1-16 серии из 16) (Михаил Вайнберг, Владимир Шевельков) / [2014, мелодрама, WEB-DL 1080p] - торрент

Скачать сериал через торрент бесплатно. Сериал доступен на нашем торрент-трекере бесплатно, без регистрации и смс.

Статистика раздачи
0 [ 0 b/s ] ↑ 31.1 GB ↓ 0 [ 0 b/s ]
Автор Сообщение
BLIZNEC W
2020-01-20 17:29
Тест на беременность (1 сезон 1-16 серии из 16)
Тест на беременность Перевод: Не требуется, cубтитры: отсутствуют
Формат: WEB-DL 1080p, MKV, H.264, AC3
Страна: Россия
Режиссер: Михаил Вайнберг, Владимир Шевельков
Жанр: мелодрама
Всего серий: 16
Продолжительность: 16 х ~ 00:50:00
Год выпуска: 2014

В ролях: Светлана Иванова, Кирилл Гребенщиков, Данила Дунаев, Лянка Грыу, Анна Каменкова, Александр Яцко, Анна Пескова, Маргарита Адаева, Татьяна Рассказова, Григорий Зельцер, Александр Нестеров (III), Андрей Полищук, Сергей Мигицко, Артур Ваха, Инна Степанова, Стелла Ильницкая, Кирилл Варакса, Александр Строев

Описание: В экспериментальный научно-медицинский центр приходит новая заведующая акушерским отделением молодая и талантливая Наталья Бахметьева. В первый же день работы она вызывает бурю эмоций у своих новых коллег, восхищая их своим бесспорным профессионализмом и возмущая жестким характером. Наташа не придает значения мгновенно появившимся вокруг нее поклонникам и завистникам. Независимая и замкнутая, она полагается только на себя. Такой образ жизни стал следствием ее многолетнего тайного романа с Юрием Колмогоровым, крупным чиновником, который когда-то был её научным руководителем в институте. Осознав, что Юрий никогда не уйдёт из семьи, Наташа порывает с ним, переезжает из Москвы в Питер и устраивается на новую работу. Но судьба ставит Наташу перед тяжёлым выбором, словно испытывая ее на прочность...

Рейтинг и доп. информация:


Видео: 1920x1080, (16:9), 25 fps, AVC MPEG-4 (x264), High@L5 ~ 5000 kbps , 0.096 bit/pixel
Аудио: 48 kHz, АС3, 2/0 (L,R), ~192 kbps avg
MediaInfo
Общее
Уникальный идентификатор : 179295805290997175575489070811756529202 (0x86E31DB43A1B6C91A0574FDC22BE8632)
Полное имя : C:\Тест на беременность (Профессия - акушер)\Тест на беременность-01_2014_WEB-DL_1080p.mkv
Формат : Matroska
Версия формата : Version 2
Размер файла : 1,86 Гбайт
Продолжительность : 51 м. 31 с.
Общий поток : 5168 Кбит/сек
Дата кодирования : UTC 2019-12-25 15:15:35
Программа кодирования : mkvmerge v4.1.1 ('Bouncin' Back') сборка от Jul 3 2010 22:54:08
Библиотека кодирования : libebml v1.0.0 + libmatroska v1.0.0

Видео
Идентификатор : 1
Формат : AVC
Формат/Информация : Advanced Video Codec
Профиль формата : High@L5
Настройки формата : CABAC / 5 Ref Frames
Параметр CABAC формата : Да
Параметр RefFrames формата : 5 кадров
Идентификатор кодека : V_MPEG4/ISO/AVC
Продолжительность : 51 м. 31 с.
Битрейт : 5000 Кбит/сек
Ширина : 1920 пикселей
Высота : 1080 пикселей
Соотношение сторон : 16:9
Режим частоты кадров : Постоянный
Частота кадров : 25,000 кадров/сек
Цветовое пространство : YUV
Субдискретизация насыщенности : 4:2:0
Битовая глубина : 8 бит
Тип развёртки : Прогрессивная
Бит/(Пиксели*Кадры) : 0.096
Размер потока : 1,75 Гбайт (94%)
Библиотека кодирования : x264 core 148
Настройки программы : cabac=1 / ref=5 / deblock=1:0:0 / analyse=0x3:0x113 / me=hex / subme=8 / psy=1 / psy_rd=1.00:0.00 / mixed_ref=1 / me_range=16 / chroma_me=1 / trellis=2 / 8x8dct=1 / cqm=0 / deadzone=21,11 / fast_pskip=1 / chroma_qp_offset=-2 / threads=34 / lookahead_threads=5 / sliced_threads=0 / nr=0 / decimate=1 / interlaced=0 / bluray_compat=0 / constrained_intra=0 / bframes=3 / b_pyramid=2 / b_adapt=1 / b_bias=0 / direct=3 / weightb=1 / open_gop=0 / weightp=2 / keyint=96 / keyint_min=24 / scenecut=0 / intra_refresh=0 / rc_lookahead=50 / rc=abr / mbtree=1 / bitrate=5000 / ratetol=1.0 / qcomp=0.60 / qpmin=0 / qpmax=69 / qpstep=4 / ip_ratio=1.40 / aq=1:1.00
Default : Да
Forced : Нет

Аудио
Идентификатор : 2
Формат : AC-3
Формат/Информация : Audio Coding 3
Коммерческое название : Dolby Digital
Режим смешивания : Header stripping
Идентификатор кодека : A_AC3
Продолжительность : 51 м. 31 с.
Вид битрейта : Постоянный
Битрейт : 192 Кбит/сек
Каналы : 2 канала
ChannelLayout : L R
Частота : 48,0 КГц
Частота кадров : 31,250 кадров/сек (1536 SPF)
Метод сжатия : С потерями
Задержка видео : -80 мс.
Размер потока : 70,8 Мбайт (4%)
Язык : Russian
ServiceKind/String : Complete Main
Default : Да
Forced : Нет

Информация о торренте:
Размер содержимого: 31.1 GB
Скачан: 257 раз
Статус: Проверен
Зарегистрирован на трекере: 2020-01-20 16:29
Скачать торрент


Поддержи раздачу — поставь лайк:
BLIZNEC W
2020-01-20 16:30
Интересного и приятного просмотра!!!

Мои раздачи
Писать комментарии на нашем торрент-трекере могут только зарегистрированные пользователи.
Зарегистрируйтесь или авторизируйтесь на сайте.