»
»

Скачать сериал Туристическая полиция (1-2 сезоны 1-24 серии из 24) (Константин Колесов) / [2018-2019, комедия, криминал, WEBRip 720p] - торрент

Скачать через торрент сериал вы можете, нажав на синюю кнопку. Сериал доступен на нашем торрент-трекере бесплатно, без регистрации и смс.

Статистика раздачи
0 [ 0 b/s ] ↑ 13.3 GB ↓ 0 [ 0 b/s ]
Автор Сообщение
BLIZNEC W
2020-01-17 18:35
Туристическая полиция (1-2 сезоны 1-24 серии из 24)
Туристическая полиция Перевод: Не требуется, cубтитры: отсутствуют
Формат: WEBRip 720p, MKV, H.264, AC3
Страна: Россия
Режиссер: Константин Колесов
Жанр: комедия, криминал
Всего серий: 24
Продолжительность: 24 x ~ 00:27:00
Год выпуска: 2018-2019

В ролях: Анастасия Ивлеева, Михаил Башкатов, Сергей Бурунов, Сергей Пиоро, Александр Ляпин, Светлана Листова, Евгений Кушпель, Анастасия Немец, Сергей Голюдов, Денис Бузин, Павел Комаров (II), Альбина Кабалина, Павел Бойко, Велимир Русаков, Евгений Кушпель (младший), Ислам Удычак, Владимир Тебенко

Описание: Сотрудник туристической полиции Лера мечтает расследовать серьезные дела и опасные преступления. Но в ее отделе они встречаются так же редко, как хорошее настроение у начальника и сообразительность у коллег по службе. Несмотря на это, Лера принципиально отказывается от «тепленького местечка», заботливо подготовленного отцом-адмиралом, и не бросает работу в спецподразделении по охране общественного порядка Сочи. Но только как продолжать службу и охранять покой гостей города, связавшись с вором и аферистом?

Рейтинг и доп. информация:


Видео: 1280x720, (16:9), 25 fps, AVC MPEG-4 (x264), High@L3.1 ~ 2960 kbps , 0.129 bit/pixel
Аудио: 48 kHz, АС3, 2/0 (L,R), ~192 kbps avg
MediaInfo
Общее
Уникальный идентификатор : 84361131451608788703144673784275399446 (0x3F775CE85BB03F2131AA89581827F316)
Полное имя : C:\Туристическая полиция (2019)\01.Туристическая полиция.mkv
Формат : Matroska
Версия формата : Version 4
Размер файла : 624 Мбайт
Продолжительность : 27 м. 37 с.
Общий поток : 3159 Кбит/сек
Дата кодирования : UTC 2019-02-26 16:30:06
Программа кодирования : mkvmerge v31.0.0 ('Dolores In A Shoestand') 64-bit
Библиотека кодирования : libebml v1.3.6 + libmatroska v1.4.9 / Lavf57.71.100

Видео
Идентификатор : 1
Формат : AVC
Формат/Информация : Advanced Video Codec
Профиль формата : High@L3.1
Настройки формата : CABAC / 1 Ref Frames
Параметр CABAC формата : Да
Параметр RefFrames формата : 1 кадр
Параметр GOP формата : M=1, N=12
Идентификатор кодека : V_MPEG4/ISO/AVC
Продолжительность : 27 м. 37 с.
Битрейт : 2960 Кбит/сек
Ширина : 1280 пикселей
Высота : 720 пикселей
Соотношение сторон : 16:9
Режим частоты кадров : Постоянный
Частота кадров : 25,000 кадров/сек
Стандарт вещания : Component
Цветовое пространство : YUV
Субдискретизация насыщенности : 4:2:0
Битовая глубина : 8 бит
Тип развёртки : Прогрессивная
Бит/(Пиксели*Кадры) : 0.129
Размер потока : 586 Мбайт (94%)
Default : Да
Forced : Нет
Цветовой диапазон : Limited

Аудио
Идентификатор : 2
Формат : AC-3
Формат/Информация : Audio Coding 3
Коммерческое название : Dolby Digital
Идентификатор кодека : A_AC3
Продолжительность : 27 м. 37 с.
Вид битрейта : Постоянный
Битрейт : 192 Кбит/сек
Каналы : 2 канала
ChannelLayout : L R
Частота : 48,0 КГц
Частота кадров : 31,250 кадров/сек (1536 SPF)
Метод сжатия : С потерями
Размер потока : 37,9 Мбайт (6%)
ServiceKind/String : Complete Main
Default : Да
Forced : Нет

Информация о торренте:
Размер содержимого: 13.3 GB
Скачан: 439 раз
Статус: Проверен
Зарегистрирован на трекере: 2020-01-17 17:35
Скачать торрент


Поддержи раздачу — поставь лайк:
BLIZNEC W
2020-01-17 17:35
Интересного и приятного просмотра!!!

Мои раздачи


paradiz24
2020-01-19 23:51
Спасибо!
Писать комментарии на нашем торрент-трекере могут только зарегистрированные пользователи.
Зарегистрируйтесь или авторизируйтесь на сайте.