»
»

Скачать фильм Без меня / Идеальные (Кирилл Плетнёв) [2018, драма, мелодрама, BDRip 720p] - торрент

Торрент можно скачать, нажав синюю кнопку ниже. Фильм доступен на нашем торрент-трекере бесплатно, без регистрации и смс.

Статистика раздачи
0 [ 0 b/s ] ↑ 3.3 GB ↓ 0 [ 0 b/s ]
Автор Сообщение
BLIZNEC W
2020-01-14 23:59
Без меня / Идеальные
Без меня / Идеальные Перевод: Не требуется
Субтитры: русские, форсированные
Формат: BDRip 720p, MKV, H.264, AC3
Страна: Россия
Режиссер: Кирилл Плетнёв
Жанр: драма, мелодрама
Продолжительность: 01:33:14
Год выпуска: 2018

В ролях: Любовь Аксёнова, Полина Максимова, Риналь Мухаметов, Кирилл Плетнёв, Анна Каменкова, Евгения Дмитриева, Владимир Яглыч, Агриппина Стеклова, Алексей Шевченков, Сэсэг Хапсасова, Иван Титяев, Александр Обласов, Владислав Каптур, Александр Печенин, Роман Евдокимов, Екатерина Гудина, Ирина Чипиженко, Юрий Бигулов, Дарья Гущина, Игорь Костерин, Сергей Лобынцев

Описание: Две девушки, любившие одного мужчину, после его гибели получают сообщения, автором которых может быть только он. В надежде на чудо им вдвоем предстоит отправиться в путь, который прокладывают его подсказки, чтобы открыть тайну, стоящую за загадочными посланиями.
«У них нет ничего общего, кроме него»
Рейтинг и доп. информация:


Видео: 1280х536, (2,35:1), 24 fps, AVC MPEG-4 (x264), High@L4.1 ~ 4500 kbps , 0.273 bit/pixel
Аудио: 48 kHz, AC3 Dolby Digital, 3/2 (L,C,R,l,r) + LFE ch, ~640 kbps [GER Transfer | Лицензия]
MediaInfo
Общее
Уникальный идентификатор : 213008413203383578890311199094799538209 (0xA03FED9A8C8B41B9A83B6A9B39DB1821)
Полное имя : C:\Bez_menya_2018_720p_BDRip_[scarabey.org].mkv
Формат : Matroska
Версия формата : Version 4
Размер файла : 3,34 Гбайт
Продолжительность : 1 ч. 33 м.
Общий поток : 5133 Кбит/сек
Дата кодирования : UTC 2020-01-14 10:54:34
Программа кодирования : mkvmerge v6.1.0 ('Old Devil') built on Mar 4 2013 09:10:42
Библиотека кодирования : libebml v1.3.0 + libmatroska v1.4.0

Видео
Идентификатор : 1
Формат : AVC
Формат/Информация : Advanced Video Codec
Профиль формата : High@L4.1
Настройки формата : CABAC / 8 Ref Frames
Параметр CABAC формата : Да
Параметр RefFrames формата : 8 кадров
Идентификатор кодека : V_MPEG4/ISO/AVC
Продолжительность : 1 ч. 33 м.
Битрейт : 4500 Кбит/сек
Ширина : 1280 пикселей
Высота : 536 пикселей
Соотношение сторон : 2,35:1
Режим частоты кадров : Постоянный
Частота кадров : 24,000 кадра/сек
Цветовое пространство : YUV
Субдискретизация насыщенности : 4:2:0
Битовая глубина : 8 бит
Тип развёртки : Прогрессивная
Бит/(Пиксели*Кадры) : 0.273
Размер потока : 2,86 Гбайт (86%)
Библиотека кодирования : x264 core 148 r2597 e86f3a1
Настройки программы : cabac=1 / ref=8 / deblock=1:-3:-3 / analyse=0x3:0x113 / me=umh / subme=10 / psy=1 / psy_rd=1.00:0.00 / mixed_ref=1 / me_range=32 / chroma_me=1 / trellis=2 / 8x8dct=1 / cqm=0 / deadzone=21,11 / fast_pskip=1 / chroma_qp_offset=-2 / threads=12 / lookahead_threads=2 / sliced_threads=0 / nr=0 / decimate=0 / interlaced=0 / bluray_compat=0 / constrained_intra=0 / bframes=8 / b_pyramid=2 / b_adapt=2 / b_bias=0 / direct=3 / weightb=1 / open_gop=0 / weightp=2 / keyint=240 / keyint_min=24 / scenecut=40 / intra_refresh=0 / rc_lookahead=40 / rc=2pass / mbtree=0 / bitrate=4500 / ratetol=1.0 / qcomp=0.60 / qpmin=0 / qpmax=69 / qpstep=4 / cplxblur=20.0 / qblur=0.5 / vbv_maxrate=50000 / vbv_bufsize=50000 / nal_hrd=none / filler=0 / ip_ratio=1.40 / pb_ratio=1.30 / aq=1:0.80
Язык : English
Default : Да
Forced : Нет

Аудио
Идентификатор : 2
Формат : AC-3
Формат/Информация : Audio Coding 3
Коммерческое название : Dolby Digital
Идентификатор кодека : A_AC3
Продолжительность : 1 ч. 33 м.
Вид битрейта : Постоянный
Битрейт : 640 Кбит/сек
Каналы : 6 каналов
ChannelLayout : L R C LFE Ls Rs
Частота : 48,0 КГц
Частота кадров : 31,250 кадров/сек (1536 SPF)
Метод сжатия : С потерями
Размер потока : 427 Мбайт (12%)
Заголовок : Лицензия
Язык : Russian
ServiceKind/String : Complete Main
Default : Да
Forced : Нет

Текст
Идентификатор : 3
Формат : UTF-8
Идентификатор кодека : S_TEXT/UTF8
Идентификатор кодека/Информация : UTF-8 Plain Text
Заголовок : русские, форсированные
Язык : Russian
Default : Да
Forced : Нет

Информация о торренте:
Размер содержимого: 3.3 GB
Скачан: 224 раза
Статус: Проверен
Зарегистрирован на трекере: 2020-01-14 22:59
Скачать торрент


Поддержи раздачу — поставь лайк:
BLIZNEC W
2020-01-14 22:59
Интересного и приятного просмотра!!!

Мои раздачи
Писать комментарии на нашем торрент-трекере могут только зарегистрированные пользователи.
Зарегистрируйтесь или авторизируйтесь на сайте.