»
»

Скачать сериал Крепостная (1-24 серии из 24) (Максим Литвинов, Феликс Герчиков) / [2019, мелодрама, HDTV 1080p] - торрент

Бесплатные торренты всегда на нашем сайте и в хорошем качестве! Сериал доступен на нашем торрент-трекере бесплатно, без регистрации и смс.

Статистика раздачи
0 [ 0 b/s ] ↑ 47.8 GB ↓ 0 [ 0 b/s ]
Автор Сообщение
BLIZNEC W
2020-01-08 16:29
Крепостная (1-24 серии из 24)
Крепостная Перевод: Не требуется, cубтитры: отсутствуют
Формат: HDTV 1080p, MKV, H.264, AC3
Страна: Украина
Режиссер: Максим Литвинов, Феликс Герчиков
Жанр: мелодрама
Всего серий: 24
Продолжительность: 24 ~00:38:28
Год выпуска: 2019

В ролях: Екатерина Ковальчук, Михаил Гаврилов (II), Алексей Яровенко, Станислав Боклан, Юлия Ауг, Ольга Сумская, Алина Коваленко, Марк Дробот, Олеся Жураковская, Ксения Мишина, Сергей Озиряный, Анна Сагайдачная, Наталия Денисенко, Виктор Бабак, Дарья Легейда, Фатима Горбенко, Сергей Деньга, Александра Киреева, Руслана Писанка, Максим Радугин, Александр Янкевич, Кристина Любая, Инна Рощина, Константин Аникьев, Олег Шушпанников, Александр Свиридов, Анна Иванова (II), Георгий Лещенко, Данил Шевченко, Демьян Радзивилюк, Татьяна Игнашкина, Наталия Васько, Александр Печерица, Валентин Томусяк, Борис Георгиевский, Георгий Поволоцкий, Любовь Солодова, Григорий Боковенко, Вячеслав Шеховцов, Лев Сомов, Константин Октябрьский, Ирина Дорошенко, Полина Ауг

Описание: История 18-летней Катерины. Она красива, умна и волею своей крестной матери воспитана как барышня благородных кровей, но для всего мира Катерина – лишь крепостная самого богатого помещика в Нежине Червинского. В борьбе за свою свободу и право быть счастливой ей придется пережить смерти самых близких людей, стать собственностью женщины, которая ее ненавидит и мечтает убить, выжить во время народного восстания, спастись от преследований маньяка в пугающем мире киевских борделей и снова, и снова бежать от того, кто хочет заполучить ее больше всего на свете. Что ждет Катерину в конце такого страшного и изнурительного пути к свободе?

Рейтинг и доп. информация:


Видео: 1920x1080, (16:9), 25 fps, AVC MPEG-4 (x264), High@L4.1 ~ 6300 kbps , 0.122 bit/pixel
Аудио: 48 kHz, АС3, 2/0 (L,R), ~192.00 kbps avg
MediaInfo
General
Unique ID : 171511221717311690248325538657395555095 (0x8107DC19E96406EFB367642EF5D83B17)
Complete name : E:Запись с твKrepostnaya 2019 HDTV 1080p.R.G.GeneralfilmKrepostnaya.s01.e03.2019.HDTV 1080p.by.White Smoke.R.G.Generalfilm.mkv
Format : Matroska
Format version : Version 4 / Version 2
File size : 1.78 GiB
Duration : 38 min
Overall bit rate mode : Constant
Overall bit rate : 6 638 kb/s
Movie name : Krepostnaya.s01.e03.2019.HDTV 1080p.by.White Smoke.R.G.Generalfilm.mkv
Encoded date : UTC 2020-01-07 13:00:05
Writing application : mkvmerge v6.8.0 ('Theme for Great Cities') 64bit built on Mar 2 2014 21:34:26
Writing library : libebml v1.3.0 + libmatroska v1.4.1
Cover : Yes
Attachments : cover.jpg

Video
ID : 1
Format : AVC
Format/Info : Advanced Video Codec
Format profile : High@L4.1
Format settings, CABAC : Yes
Format settings, ReFrames : 3 frames
Codec ID : V_MPEG4/ISO/AVC
Duration : 38 min
Bit rate mode : Constant
Bit rate : 6 300 kb/s
Nominal bit rate : 7 051 kb/s
Width : 1 920 pixels
Height : 1 080 pixels
Display aspect ratio : 16:9
Frame rate mode : Constant
Frame rate : 25.000 FPS
Standard : PAL
Color space : YUV
Chroma subsampling : 4:2:0
Bit depth : 8 bits
Scan type : Progressive
Bits/(Pixel*Frame) : 0.122
Stream size : 1.70 GiB (95%)
Default : No
Forced : No
Color range : Limited
Color primaries : BT.709
Transfer characteristics : BT.709
Matrix coefficients : BT.709

Audio
ID : 2
Format : AC-3
Format/Info : Audio Coding 3
Mode extension : CM (complete main)
Format settings, Endianness : Big
Codec ID : A_AC3
Duration : 38 min
Bit rate mode : Constant
Bit rate : 192 kb/s
Channel(s) : 2 channels
Channel positions : Front: L R
Sampling rate : 48.0 kHz
Frame rate : 31.250 FPS (1536 spf)
Compression mode : Lossy
Stream size : 52.8 MiB (3%)
Default : Yes
Forced : No

Информация о торренте:
Размер содержимого: 47.8 GB
Скачан: 559 раз
Статус: Проверен
Зарегистрирован на трекере: 2020-01-18 14:55
Скачать торрент


Поддержи раздачу — поставь лайк:
BLIZNEC W
2020-01-08 15:30
Интересного и приятного просмотра!!!

Мои раздачи
Писать комментарии на нашем торрент-трекере могут только зарегистрированные пользователи.
Зарегистрируйтесь или авторизируйтесь на сайте.