»
»

Скачать фильм 10 вещей, которые мы должны знать о будущем / BBC. 10 Things You Need to Know About the Future (Питер Леонард) [2017, документальный, научно-популярный, HDTV 1080i] DVO - торрент

Скачать фильм бесплатно через торрент. Фильм доступен на нашем торрент-трекере бесплатно, без регистрации и смс.

Статистика раздачи
0 [ 0 b/s ] ↑ 3.1 GB ↓ 0 [ 0 b/s ]
Автор Сообщение
sanayra
2019-12-03 19:24
10 вещей, которые мы должны знать о будущем / BBC. 10 Things You Need to Know About the Future
10 вещей, которые мы должны знать о будущем / BBC. 10 Things You Need to Know About the Future
Перевод: Профессиональный (двухголосый), cубтитры: отсутствуют
Формат: HDTV 1080i, MKV, H.264, AC3
Страна: Великобритания
Режиссер: Питер Леонард
Жанр: документальный, научно-популярный
Продолжительность: 00:52:17
Год выпуска: 2017

Ведущая: Ханна Фрай

Описание: В этом эпизоде рассматриваются вопросы, которые изменят то, как мы живем в будущем. Математик Ханна Фрай, вместо того, чтобы полагаться на умы писателей-фантастов, вникает в данные, которые мы имеем сегодня, чтобы представить наглядное представление о завтрашнем дне. С помощью научных экспертов Би-би-си - и нескольких гостей-сюрпризов - Ханна исследует вопросы, которые британская публика хочет получить в ответ на будущее.

Видео: 1920x1080 (16:9), 25 fps, AVC (x264), Main@L4, 7751 kbps, 0.150 bit/pixel
Аудио: Русский 48 kHz, AC3 Dolby Digital, 3/2 (L,C,R,l,r) + LFE ch, ~448.00 kbps avg

Доп. информация:
Спасибо автору релиза kyba62

MI
Complete name : F:\Наладки\10 вещей, которые мы должны знать о будущем.mkv
Format : Matroska
Format version : Version 4 / Version 2
File size : 3.06 GiB
Duration : 52 min 17 s
Overall bit rate : 8 366 kb/s
Encoded date : UTC 2018-09-15 10:40:21
Writing application : mkvmerge v6.6.0 ('The Edge Of The In Between') built on Dec 1 2013 17:55:00
Writing library : libebml v1.3.0 + libmatroska v1.4.1

Video
ID : 1
Format : AVC
Format/Info : Advanced Video Codec
Format profile : Main@L4
Format settings : CABAC / 4 Ref Frames
Format settings, CABAC : Yes
Format settings, ReFrames : 4 frames
Codec ID : V_MPEG4/ISO/AVC
Duration : 52 min 17 s
Bit rate : 7 751 kb/s
Width : 1 920 pixels
Height : 1 080 pixels
Display aspect ratio : 16:9
Frame rate mode : Constant
Frame rate : 25.000 FPS
Color space : YUV
Chroma subsampling : 4:2:0
Bit depth : 8 bits
Scan type : Interlaced
Scan type, store method : Separated fields
Scan order : Top Field First
Bits/(Pixel*Frame) : 0.150
Stream size : 2.83 GiB (93%)
Default : Yes
Forced : No
Color range : Limited
Color primaries : BT.709
Transfer characteristics : BT.709
Matrix coefficients : BT.709

Audio
ID : 2
Format : AC-3
Format/Info : Audio Coding 3
Codec ID : A_AC3
Duration : 52 min 17 s
Bit rate mode : Constant
Bit rate : 448 kb/s
Channel(s) : 6 channels
Channel positions : Front: L C R, Side: L R, LFE
Sampling rate : 48.0 kHz
Frame rate : 31.250 FPS (1536 SPF)
Bit depth : 16 bits
Compression mode : Lossy
Stream size : 168 MiB (5%)
Language : Russian
Service kind : Complete Main
Default : Yes
Forced : No



Информация о торренте:
Размер содержимого: 3.1 GB
Скачан: 122 раза
Статус: Проверен
Зарегистрирован на трекере: 2019-12-03 18:24
Скачать торрент


Поддержи раздачу — поставь лайк:
Писать комментарии на нашем торрент-трекере могут только зарегистрированные пользователи.
Зарегистрируйтесь или авторизируйтесь на сайте.