»
»

Скачать прикол Однажды под Полтавой (1-8 сезоны: 1-139 серии из 150) / Одного разу під Полтавою (Андрей Бурлака, Ольга Бережная) [2014-2019, Комедия, ситком, WEB-DL 1080р] - торрент

Скачать торрент прикол можно, нажав на синюю кнопку ниже. Прикол доступен на нашем торрент-трекере бесплатно, без регистрации и смс.

Статистика раздачи
0 [ 0 b/s ] ↑ 124.1 GB ↓ 0 [ 0 b/s ]
Автор Сообщение
Astarot999
2019-10-10 18:35
Однажды под Полтавой (1-8 сезоны: 1-139 серии из 150) / Одного разу під Полтавою
Однажды под Полтавой Перевод: Не требуется, cубтитры: отсутствуют
Формат: WEB-DL, MKV, H.264, AAC
Страна: Украина
Режиссер: Андрей Бурлака, Ольга Бережная
Жанр: Комедия, ситком
Продолжительность: 139 x ~ 00:26:00
Год выпуска: 2014-2019
В ролях: Ирина Сопонару, Юрий Ткач, Виктор Гевко, Анна Саливанчук, Александр Данильченко
Описание:
В сериале «Однажды под Полтавой» к Яринке, Юрчику, Куму и Участковому присоединятся новые персонажи – седовласый дед Петро и эффектная продавщица сельмага Вера. К первому все герои будут бегать за советами, вторая же станет предметом страсти и объектом ухаживаний Участкового. Таких бурных событий это село не видело со времен Полтавской битвы. Нашествие байкеров, шумные вечеринки в американском стиле, магические ритуалы и, как всегда, море авантюр.

Видео: 1920x1080 (16:9), 25.000 fps, MPEG-4, High@L4.0 ~2498 kbps avg, 0.048 bit/pixel
Аудио: 44.1 kHz, ACС, 2/0 (L,R) ch, ~126.00 kbps avg
MI
General
Complete name : C:\Одного разу під Полтавою\034 серія. Нова поліція у Полтаві (Kinozal-Reliz).mp4
Format : MPEG-4
Format profile : Base Media
Codec ID : isom (isom/iso2/avc1/mp41)
File size : 490 MiB
Duration : 26 min 2 s
Overall bit rate : 2 630 kb/s
Writing application : Lavf56.40.101

Video
ID : 1
Format : AVC
Format/Info : Advanced Video Codec
Format profile : High@L4
Format settings : CABAC / 3 Ref Frames
Format settings, CABAC : Yes
Format settings, ReFrames : 3 frames
Codec ID : avc1
Codec ID/Info : Advanced Video Coding
Duration : 26 min 2 s
Duration_FirstFrame : -40 ms
Bit rate : 2 498 kb/s
Width : 1 920 pixels
Height : 1 080 pixels
Display aspect ratio : 16:9
Frame rate mode : Variable
Frame rate : 25.000 FPS
Minimum frame rate : 25.000 FPS
Maximum frame rate : 25.014 FPS
Color space : YUV
Chroma subsampling : 4:2:0
Bit depth : 8 bits
Scan type : Progressive
Bits/(Pixel*Frame) : 0.048
Stream size : 465 MiB (95%)
Color range : Limited
Color primaries : BT.709
Transfer characteristics : BT.709
Matrix coefficients : BT.709
Codec configuration box : avcC

Audio
ID : 2
Format : AAC LC
Format/Info : Advanced Audio Codec Low Complexity
Codec ID : mp4a-40-2
Duration : 26 min 2 s
Bit rate mode : Constant
Bit rate : 126 kb/s
Channel(s) : 2 channels
Channel layout : L R
Sampling rate : 44.1 kHz
Frame rate : 43.066 FPS (1024 SPF)
Compression mode : Lossy
Stream size : 23.4 MiB (5%)
Default : Yes
Alternate group : 1

Информация о торренте:
Размер содержимого: 124.1 GB
Скачан: 184 раза
Статус: Проверен
Зарегистрирован на трекере: 2019-10-10 17:35
Скачать торрент


Поддержи раздачу — поставь лайк:
Писать комментарии на нашем торрент-трекере могут только зарегистрированные пользователи.
Зарегистрируйтесь или авторизируйтесь на сайте.