»
»

Скачать фильм Самая большая в мире белая акула / NAT GEO WILD. World's Bigget Great White? [2019, документальный, природа, флора, фауна, HDTV 1080i] VO - торрент

Нажмите на синюю кнопку, чтобы скачать фильм через торрент бесплатно. Фильм доступен на нашем торрент-трекере бесплатно, без регистрации и смс.

Статистика раздачи
0 [ 0 b/s ] ↑ 2.4 GB ↓ 0 [ 0 b/s ]
Автор Сообщение
sanayra
2019-10-10 11:29
Самая большая в мире белая акула / NAT GEO WILD. World's Bigget Great White?
Самая большая в мире белая акула / NAT GEO WILD. World's Bigget Great White?
Перевод: Профессиональный (одноголосый) / Велес - текст читает: Борис Хасанов /, cубтитры: отсутствуют
Формат: HDTV, MPEG-TS, H.264, MP2
Страна: США
Жанр: документальный, природа, флора, фауна
Продолжительность: 00:43:34
Год выпуска: 2019

Описание: Три опытных дайвера и фотографа пускаются в путешествие на маленькой лодке, чтобы попытаться снять на пленку жизнь морских обитателей, собравшихся вокруг кашалота, дрейфующего недалеко от берега острова Оаху, гавайского архипелага. И им удалось заснять одну из самых невероятно больших белых акул, которые когда-либо попадали в кадр.

Видео: 1920x1080 (16:9), 25,000 fps, AVC (х264), Main@L4, 7033 Кбит/сек, ~ 0.136 bit/pixel
Аудио #1: Русский 48 kHz, MPEG Layer 2, 2 ch, ~192.00 kbps avg
Аудио #2: Английский 48 kHz, MPEG Layer 2, 2 ch, ~192.00 kbps avg

MI
Общее
Идентификатор : 1 (0x1)
Полное имя : F:\КИНО\Самая больш. в мире бел. ак. 1080 (2019).ts
Формат : MPEG-TS
Размер файла : 2,38 Гбайт
Продолжительность : 43 м. 34 с.
Режим общего битрейта : Переменный
Общий поток : 7806 Кбит/сек

Видео
Идентификатор : 1154 (0x482)
Идентификатор меню : 135 (0x87)
Формат : AVC
Формат/Информация : Advanced Video Codec
Профиль формата : Main@L4
Настройки формата : CABAC / 4 Ref Frames
Параметр CABAC формата : Да
Параметр RefFrames формата : 4 кадра
Параметр GOP формата : M=4, N=24
Идентификатор кодека : 27
Продолжительность : 43 м. 34 с.
Битрейт : 7033 Кбит/сек
Ширина : 1920 пикселей
Высота : 1080 пикселей
Соотношение сторон : 16:9
Частота кадров : 25,000 кадров/сек
Стандарт вещания : Component
Цветовое пространство : YUV
Субдискретизация насыщенности : 4:2:0
Битовая глубина : 8 бит
Тип развёртки : Чересстрочная
Метод сохранения типа развёртки : Раздельные поля
Порядок развёртки : Верхнее поле первое
Бит/(Пиксели*Кадры) : 0.136
Размер потока : 2,14 Гбайт (90%)
Цветовой диапазон : Limited
Основные цвета : BT.709
Характеристики трансфера : BT.709
Коэффициенты матрицы : BT.709

Аудио #1
Идентификатор : 1155 (0x483)
Идентификатор меню : 135 (0x87)
Формат : MPEG Audio
Версия формата : Version 1
Профиль формата : Layer 2
Идентификатор кодека : 3
Продолжительность : 43 м. 33 с.
Вид битрейта : Постоянный
Битрейт : 192 Кбит/сек
Каналы : 2 канала
Частота : 48,0 КГц
Частота кадров : 41,667 кадра/сек (1152 SPF)
Метод сжатия : С потерями
Размер потока : 59,8 Мбайт (2%)
Язык : Russian

Аудио #2
Идентификатор : 1156 (0x484)
Идентификатор меню : 135 (0x87)
Формат : MPEG Audio
Версия формата : Version 1
Профиль формата : Layer 2
Идентификатор кодека : 3
Продолжительность : 43 м. 33 с.
Вид битрейта : Постоянный
Битрейт : 192 Кбит/сек
Каналы : 2 канала
Частота : 48,0 КГц
Частота кадров : 41,667 кадра/сек (1152 SPF)
Метод сжатия : С потерями
Размер потока : 59,8 Мбайт (2%)
Язык : English



Информация о торренте:
Размер содержимого: 2.4 GB
Скачан: 54 раза
Статус: Проверен
Зарегистрирован на трекере: 2019-10-10 10:29
Скачать торрент


Поддержи раздачу — поставь лайк:
Писать комментарии на нашем торрент-трекере могут только зарегистрированные пользователи.
Зарегистрируйтесь или авторизируйтесь на сайте.