»
»

Скачать сериал Отчаянные (1-12 серии из 12) (Дарья Полторацкая) / [2019, мелодрама, драма, HDTVRip-AVC] - торрент

Скачать через торрент сериал вы можете, нажав на синюю кнопку. Сериал доступен на нашем торрент-трекере бесплатно, без регистрации и смс.

Статистика раздачи
0 [ 0 b/s ] ↑ 9.0 GB ↓ 0 [ 0 b/s ]
Автор Сообщение
BLIZNEC W
2019-10-08 16:11
Отчаянные (1-12 серии из 12)
Отчаянные Перевод: Не требуется, cубтитры: отсутствуют
Формат: HDTVRip-AVC, MKV, H.264, AC3
Страна: Россия
Режиссер: Дарья Полторацкая
Жанр: мелодрама, драма
Всего серий: 12
Продолжительность: 12 x ~ 00:48:43
Год выпуска: 2019

В ролях: Анна Снаткина, Анна Банщикова, Светлана Корчагина, Данила Якушев, Сергей Чонишвили, Александр Левин, Олег Тактаров, Сергей Комаров, Дмитрий Ермак, Максим Деричев, Александр Гришин, Юрий Батурин, Артём Сучков, Кузьма Сапрыкин, Денис Бузин, Илья Исаев, Александра Скачкова, Сандра Вострецова, Юлия Деллос, Дмитрий Ломакин, Сергей Черданцев

Описание: В центре сюжета – две полярно разные героини с непростыми судьбами. Объединяет их одно: обе они – обычные женщины, жизнь которых никогда не пересекалась с преступным миром. Однако всё меняется и кардинально усложняется, когда героини сначала становятся свидетельницами убийства, а затем – невольными преступницами и главными подозреваемыми в череде громких уголовных дел.

Рейтинг и доп. информация:


Видео: 1024x576, (16:9), 25 fps, AVC MPEG-4 (x264), High@L4.1 ~ 2000 kbps , 0.136 bit/pixel
Аудио: 48 kHz, АС3, 2/0 (L,R), ~192 kbps avg
MediaInfo
Общее
Уникальный идентификатор : 187749495680855787969335108716140336855 (0x8D3F3CD1E1A4507E8ACAF53AC91296D7)
Полное имя : C:\Otchajannye.(2019).HDTVRip.(AVC).Files-x\01.Otchajannye.(2019).HDTVRip.(AVC).by.Серый1779.Files-x.mkv
Формат : Matroska
Версия формата : Version 2
Размер файла : 749 Мбайт
Продолжительность : 47 м. 43 с.
Общий поток : 2194 Кбит/сек
Дата кодирования : UTC 2019-10-08 09:48:15
Программа кодирования : mkvmerge v7.8.0 ('River Man') 32bit built on Apr 3 2015 12:11:22
Библиотека кодирования : libebml v1.3.1 + libmatroska v1.4.2

Видео
Идентификатор : 1
Формат : AVC
Формат/Информация : Advanced Video Codec
Профиль формата : High@L4.1
Настройки формата : CABAC / 9 Ref Frames
Параметр CABAC формата : Да
Параметр RefFrames формата : 9 кадров
Идентификатор кодека : V_MPEG4/ISO/AVC
Продолжительность : 47 м. 43 с.
Битрейт : 2000 Кбит/сек
Ширина : 1024 пикселя
Высота : 576 пикселей
Соотношение сторон : 16:9
Режим частоты кадров : Постоянный
Частота кадров : 25,000 кадров/сек
Цветовое пространство : YUV
Субдискретизация насыщенности : 4:2:0
Битовая глубина : 8 бит
Тип развёртки : Прогрессивная
Бит/(Пиксели*Кадры) : 0.136
Размер потока : 668 Мбайт (89%)
Библиотека кодирования : x264 core 146 r2538 121396c
Настройки программы : cabac=1 / ref=9 / deblock=1:-2:-1 / analyse=0x3:0x133 / me=umh / subme=9 / psy=1 / psy_rd=1.00:0.15 / mixed_ref=1 / me_range=32 / chroma_me=1 / trellis=2 / 8x8dct=1 / cqm=0 / deadzone=21,11 / fast_pskip=0 / chroma_qp_offset=-3 / threads=18 / lookahead_threads=3 / sliced_threads=0 / nr=0 / decimate=1 / interlaced=0 / bluray_compat=0 / constrained_intra=0 / bframes=9 / b_pyramid=2 / b_adapt=2 / b_bias=0 / direct=1 / weightb=1 / open_gop=0 / weightp=2 / keyint=250 / keyint_min=25 / scenecut=40 / intra_refresh=0 / rc=2pass / mbtree=0 / bitrate=2000 / ratetol=1.0 / qcomp=0.60 / qpmin=0 / qpmax=69 / qpstep=4 / cplxblur=20.0 / qblur=0.5 / ip_ratio=1.40 / pb_ratio=1.30 / aq=2:1.00
Default : Да
Forced : Нет
Цветовой диапазон : Limited
Основные цвета : BT.709
Характеристики трансфера : BT.709
Коэффициенты матрицы : BT.709

Аудио
Идентификатор : 2
Формат : AC-3
Формат/Информация : Audio Coding 3
Коммерческое название : Dolby Digital
Идентификатор кодека : A_AC3
Продолжительность : 47 м. 43 с.
Вид битрейта : Постоянный
Битрейт : 192 Кбит/сек
Каналы : 2 канала
ChannelLayout : L R
Частота : 48,0 КГц
Частота кадров : 31,250 кадров/сек (1536 SPF)
Метод сжатия : С потерями
Размер потока : 65,5 Мбайт (9%)
ServiceKind/String : Complete Main
Default : Да
Forced : Нет

Информация о торренте:
Размер содержимого: 9.0 GB
Скачан: 310 раз
Статус: Проверен
Зарегистрирован на трекере: 2019-10-17 10:37
Скачать торрент


Поддержи раздачу — поставь лайк:
BLIZNEC W
2019-10-08 15:11
Интересного и приятного просмотра!!!

Мои раздачи
Писать комментарии на нашем торрент-трекере могут только зарегистрированные пользователи.
Зарегистрируйтесь или авторизируйтесь на сайте.