»
»

Скачать сериал Тайны Фрэнки Дрейк, 3 сезон 1-10 серии из 10 / Frankie Drake Mysteries [IdeaFilm] (Руба Надда, Кэл Кунс) [2019, драма, криминал, детектив, WEB-DLRip, Р] - торрент

Скачать торрент сериал можно, нажав на синюю кнопку ниже. Сериал доступен на нашем торрент-трекере бесплатно, без регистрации и смс.

Статистика раздачи
0 [ 0 b/s ] ↑ 6.7 GB ↓ 0 [ 0 b/s ]
Автор Сообщение
D4IVER
2019-09-18 00:10
Тайны Фрэнки Дрейк / Frankie Drake Mysteries
Тайны Фрэнки Дрейк, 3 сезон 1-10 серии из 10 / Frankie Drake Mysteries [IdeaFilm]
Перевод: Профессиональный (многоголосый, закадровый) IdeaFilm
Субтитры: отсутствуют
Формат: WEB-DLRip, AVI, XviD, AC3
Страна: Канада
Режиссер: Руба Надда, Кэл Кунс
Жанр: Драма, криминал, детектив
Всего серий: 10
Продолжительность: 10 х ~ 00:45:00
Год выпуска: 2019

В ролях: Лорен Ли Смит, Шантель Райли, Ребекка Лиддьярд, Шаррон Мэтьюз, Грэйс Линн Кунг, Венди Крюсон, Ромэйн Вейт, Карен Робинсон, Эммануэль Кабонго

Описание: Сериал расскажет о Фрэнки Дрейк — первой в городе женщине, ставшей частным детективом, действующей в канадском городе Торонто в 20-е годы прошлого века. Фрэнки, обладая всеми качествами, присущими хорошему детективу, вместе со своей помощницей Труди берётся за расследование самых сложных и запутанных дел — даже таких, где, казалось бы, нет никаких улик..

[imdb=http://www.imdb.com/title/tt6881870/]

Видео: 720x400 (16:9), 23.976 fps, XviD MPEG-4 ~1785 kbps avg, 0.259 bit/pixel
Аудио #1 Rus: 48 kHz, AC3 Dolby Digital, 3/2 (L,C,R,l,r) + LFE ch, ~384 kbps

Внимание, присутствует реклама!

MediaInfo

Video
ID : 0
Format : MPEG-4 Visual
Format profile : Advanced Simple@L5
Format settings : BVOP2
Format settings, BVOP : 2
Format settings, QPel : No
Format settings, GMC : No warppoints
Format settings, Matrix : Default (H.263)
Muxing mode : Packed bitstream
Codec ID : XVID
Codec ID/Hint : XviD
Duration : 44 min 17 s
Bit rate : 1 785 kb/s
Width : 720 pixels
Height : 400 pixels
Display aspect ratio : 16:9
Frame rate : 23.976 (24000/1001) FPS
Color space : YUV
Chroma subsampling : 4:2:0
Bit depth : 8 bits
Scan type : Progressive
Compression mode : Lossy
Bits/(Pixel*Frame) : 0.259
Stream size : 566 MiB (82%)
Writing library : XviD 67

Audio
ID : 1
Format : AC-3
Format/Info : Audio Coding 3
Commercial name : Dolby Digital
Codec ID : 2000
Duration : 44 min 17 s
Bit rate mode : Constant
Bit rate : 384 kb/s
Channel(s) : 6 channels
Channel positions : Front: L C R, Side: L R, LFE
Sampling rate : 48.0 kHz
Frame rate : 31.250 FPS (1536 SPF)
Bit depth : 16 bits
Compression mode : Lossy
Stream size : 122 MiB (18%)
Alignment : Aligned on interleaves
Interleave, duration : 42 ms (1.00 video frame)
Interleave, preload duratio : 512 ms
Service kind : Complete Main

Информация о торренте:
Размер содержимого: 6.7 GB
Скачан: 1413 раз
Статус: Проверен
Зарегистрирован на трекере: 2019-12-03 18:17
Скачать торрент


Поддержи раздачу — поставь лайк:
Писать комментарии на нашем торрент-трекере могут только зарегистрированные пользователи.
Зарегистрируйтесь или авторизируйтесь на сайте.