»
»

Скачать сериал Тайны Фрэнки Дрейк, 3 сезон 1-10 серии из 10 / Frankie Drake Mysteries [IdeaFilm] (Руба Надда, Кэл Кунс) [2019, драма, криминал, детектив, WEB-DLRip 1080p, Р] - торрент

Скачать сериал бесплатно через торрент. Сериал доступен на нашем торрент-трекере бесплатно, без регистрации и смс.

Статистика раздачи
0 [ 0 b/s ] ↑ 24.6 GB ↓ 0 [ 0 b/s ]
Автор Сообщение
D4IVER
2019-09-18 00:10
Тайны Фрэнки Дрейк / Frankie Drake Mysteries
Тайны Фрэнки Дрейк, 3 сезон 1-10 серии из 10 / Frankie Drake Mysteries [IdeaFilm]
Перевод: Профессиональный (многоголосый, закадровый) IdeaFilm
Субтитры: отсутствуют
Формат: WEB-DLRip 1080p, MKV, H.264, AC3
Страна: Канада
Режиссер: Руба Надда, Кэл Кунс
Жанр: Драма, криминал, детектив
Всего серий: 10
Продолжительность: 10 х ~ 00:45:00
Год выпуска: 2019

В ролях: Лорен Ли Смит, Шантель Райли, Ребекка Лиддьярд, Шаррон Мэтьюз, Грэйс Линн Кунг, Венди Крюсон, Ромэйн Вейт, Карен Робинсон, Эммануэль Кабонго

Описание: Сериал расскажет о Фрэнки Дрейк — первой в городе женщине, ставшей частным детективом, действующей в канадском городе Торонто в 20-е годы прошлого века. Фрэнки, обладая всеми качествами, присущими хорошему детективу, вместе со своей помощницей Труди берётся за расследование самых сложных и запутанных дел — даже таких, где, казалось бы, нет никаких улик..

[imdb=http://www.imdb.com/title/tt6881870/]

Видео: 1920x1080 (16:9), 23.976 fps, AVC (х264), Main@L4.1, ~6941 kbps avg, 0.140 bit/pixel
Аудио #1 Rus: 48 kHz, AC3 Dolby Digital, 3/2 (L,C,R,l,r) + LFE ch, ~384 kbps
Аудио #2 Eng: 48 kHz, AC3 Dolby Digital, 3/2 (L,C,R,l,r) + LFE ch, ~640 kbps

Внимание, присутствует реклама!

MediaInfo

Video
ID : 1
Format : AVC
Format/Info : Advanced Video Codec
Format profile : Main@L4.1
Format settings : CABAC / 4 Ref Frames
Format settings, CABAC : Yes
Format settings, ReFrames : 4 frames
Codec ID : V_MPEG4/ISO/AVC
Duration : 44 min 17 s
Bit rate : 6 941 kb/s
Width : 1 920 pixels
Height : 1 080 pixels
Display aspect ratio : 16:9
Frame rate mode : Constant
Frame rate : 23.976 (24000/1001) FPS
Color space : YUV
Chroma subsampling : 4:2:0
Bit depth : 8 bits
Scan type : Progressive
Bits/(Pixel*Frame) : 0.140
Stream size : 2.15 GiB (87%)
Language : English
Default : Yes
Forced : No
Color range : Limited
Color primaries : BT.709
Transfer characteristics : BT.709
Matrix coefficients : BT.709

Audio #1
ID : 2
Format : AC-3
Format/Info : Audio Coding 3
Commercial name : Dolby Digital
Codec ID : A_AC3
Duration : 44 min 17 s
Bit rate mode : Constant
Bit rate : 384 kb/s
Channel(s) : 6 channels
Channel positions : Front: L C R, Side: L R, LFE
Sampling rate : 48.0 kHz
Frame rate : 31.250 FPS (1536 SPF)
Bit depth : 16 bits
Compression mode : Lossy
Stream size : 122 MiB (5%)
Title : IDEAFILM
Language : Russian
Service kind : Complete Main
Default : Yes
Forced : No

Audio #2
ID : 3
Format : AC-3
Format/Info : Audio Coding 3
Codec ID : A_AC3
Duration : 43 min 44 s
Bit rate : 640 kb/s
Channel(s) : 6 channels
Sampling rate : 48.0 kHz
Frame rate : 31.250 FPS (1536 SPF)
Compression mode : Lossy
Stream size : 200 MiB (8%)
Language : English
Default : No
Forced : No

Информация о торренте:
Размер содержимого: 24.6 GB
Скачан: 1106 раз
Статус: Проверен
Зарегистрирован на трекере: 2019-12-03 18:17
Скачать торрент


Поддержи раздачу — поставь лайк:
Писать комментарии на нашем торрент-трекере могут только зарегистрированные пользователи.
Зарегистрируйтесь или авторизируйтесь на сайте.