»
»

Скачать сериал Двойка, 3 сезон 1-2 серии из 8 / The Deuce [HDRezka Studio] (Алекс Холл, Роксанн Доусон, Ута Бризвитц) [2019, Драма, WEB-DL 1080p, P, SUB] - торрент

Скачать бесплатный торрент сериал. Сериал доступен на нашем торрент-трекере бесплатно, без регистрации и смс.

Статистика раздачи
0 [ 0 b/s ] ↑ 9.0 GB ↓ 0 [ 0 b/s ]
Автор Сообщение
OLEG270877
2019-09-12 12:45
Двойка / The Deuce
Двойка, 3 сезон 1-2 серии из 8 / The Deuce [HDRezka Studio]
Перевод: Профессиональный (многоголосый, закадровый) HDRezka Studio
Субтитры: Русские ,английские
Формат: WEB-DL, MKV, h.264, АС3
Страна: США
Режиссер: Алекс Холл, Роксанн Доусон, Ута Бризвитц
Жанр: драма
Озвучивание: HDRezka Studio
Всего серий: 8
Продолжительность: 2 х ~01:00:00
Год выпуска: 2019

В ролях: Дэвид Крамхолц, Дэниэл Саули, Мустафа Жакир, Джеймс Франко, Мэгги Джилленхол, Лоуренс Гиллиард мл., Маргарита Левиева, Эмили Мид др., Аарон Дин, Майкл Гандольфини

Описание: Сюжет сериала переносит зрителей в семидесятые годы прошлого века. Мы находимся в Нью-Йорке, огромном мегаполисе, в котором набирает обороты сексуальная революция, а люди, стоящие у власти, не могут справиться с ростом проституции и криминальной активности. Несмотря на тот ужас, что творится на улицах крупнейшего американского города, главные действующие лица этого сериала решают пойти ва-банк, чтобы продвинуть культуру в массы. Правда, их выбор падает на совершенно новый продукт - порнографию, которая вскоре станет общенациональным достоянием, ведь современные пользователи интернета в большинстве своём так или иначе просматривают видео подобного жанра. Авторы сценария рассказывают о событиях семидесятых и восьмидесятых годов, опуская последующие этапы развития порно-индустрии. Однако многие зрители смогут понять, что именно события этого проекта стали основополагающими и решающими в вопросе развития этого направления творчества.



Видео: 1920x1080 (16:9), 23,976 fps, AVC (х264), High@L4, ~10000 kbps avg, 0.201 bit/pixel
Аудио RUS: 48 kHz, AC3 Dolby Digital, 2/0 (L,R) ch, ~384 kbps - HDRezka Studio
Аудио ENG: 48 kHz, Е-AC3 Dolby Digital, 3/2 (L,C,R,l,r) + LFE ch, ~640 kbps - Оригинал

В сериале присутствует ненормативная лексика!



MediaInfo
Общее
Уникальный идентификатор : 297128774451465379421651228838075398607 (0xDF88EB9FB2258838F50EE24C104D79CF)
Полное имя : The.Deuce.S03Е01.AMZN.1080p.WEB-DL.HDRezka.mkv
Формат : Matroska
Версия формата : Version 4
Размер файла : 4,54 Гбайт
Продолжительность : 1 ч. 0 м.
Общий поток : 10,7 Мбит/сек
Дата кодирования : UTC 2019-09-12 05:50:40
Программа кодирования : mkvmerge v37.0.0 ('Leave It') 64-bit
Библиотека кодирования : libebml v1.3.9 + libmatroska v1.5.2
Attachments : poster.jpg

Видео
Идентификатор : 1
Формат : AVC
Формат/Информация : Advanced Video Codec
Профиль формата : High@L4
Настройки формата : CABAC / 4 Ref Frames
Параметр CABAC формата : Да
Параметр RefFrames формата : 4 кадра
Идентификатор кодека : V_MPEG4/ISO/AVC
Продолжительность : 1 ч. 0 м.
Вид битрейта : Постоянный
Битрейт : 10000 Кбит/сек
Ширина : 1920 пикселей
Высота : 1080 пикселей
Соотношение сторон : 16:9
Режим частоты кадров : Постоянный
Частота кадров : 23,976 (24000/1001) кадра/сек
Цветовое пространство : YUV
Субдискретизация насыщенности : 4:2:0
Битовая глубина : 8 бит
Тип развёртки : Прогрессивная
Бит/(Пиксели*Кадры) : 0.201
Размер потока : 4,10 Гбайт (90%)
Default : Да
Forced : Нет
Цветовой диапазон : Limited
Основные цвета : BT.709
Характеристики трансфера : BT.709
Коэффициенты матрицы : BT.709

Аудио #1
Идентификатор : 2
Формат : AC-3
Формат/Информация : Audio Coding 3
Коммерческое название : Dolby Digital
Идентификатор кодека : A_AC3
Продолжительность : 1 ч. 0 м.
Вид битрейта : Постоянный
Битрейт : 384 Кбит/сек
Каналы : 2 канала
ChannelLayout : L R
Частота : 48,0 КГц
Частота кадров : 31,250 кадров/сек (1536 SPF)
Метод сжатия : С потерями
Размер потока : 167 Мбайт (4%)
Заголовок : HDRezka
Язык : Russian
Default : Да
Forced : Нет

Аудио #2
Идентификатор : 3
Формат : E-AC-3
Формат/Информация : Enhanced AC-3
Коммерческое название : Dolby Digital Plus
Идентификатор кодека : A_EAC3
Продолжительность : 1 ч. 0 м.
Вид битрейта : Постоянный
Битрейт : 640 Кбит/сек
Каналы : 6 каналов
ChannelLayout : L R C LFE Ls Rs
Частота : 48,0 КГц
Частота кадров : 31,250 кадров/сек (1536 SPF)
Метод сжатия : С потерями
Задержка видео : 6 мс.
Размер потока : 279 Мбайт (6%)
Язык : English
Default : Нет
Forced : Нет

Текст #1
Идентификатор : 4
Формат : UTF-8
Идентификатор кодека : S_TEXT/UTF8
Идентификатор кодека/Информация : UTF-8 Plain Text
Продолжительность : 58 м. 46 с.
Битрейт : 98 бит/сек
ElementCount : 931
Размер потока : 42,5 Кбайт (0%)
Язык : Russian
Default : Да
Forced : Нет

Текст #2
Идентификатор : 5
Формат : UTF-8
Идентификатор кодека : S_TEXT/UTF8
Идентификатор кодека/Информация : UTF-8 Plain Text
Продолжительность : 1 ч. 0 м.
Битрейт : 71 бит/сек
ElementCount : 1057
Размер потока : 31,9 Кбайт (0%)
Заголовок : SDH
Язык : English
Default : Нет
Forced : Нет
Внимание! Раздача ведётся путём добавления новых серий
Внимание! Раздача ведётся путём добавления новых серий; при каждом добавлении создаётся новый торрент. Чтобы начать докачку новой серии, пользователям необходимо сделать следующее:
(1) остановить скачивание,
(2) удалить старый торрент у себя из клиента (старые серии удалять не надо),
(3) скачать новый торрент и запустить его у себя в клиенте вместо старого, при этом указать клиенту путь в старую папку куда и должно происходить скачивание новых серий.

Ваш клиент при этом должен произвести хеширование (проверку) старой папки (если не производит сам - помогите ему сделать это), и будет докачивать только те серии которых у вас ещё нет. Старые серии при этом не удаляются, а продолжают раздаваться!

Eсли вы уже удалили старые серии, то предотвратить повторную закачку старых серий можно, отжав галочку в соответсвующих местах при запуске нового торрента. По возможности, желательно не удалять старые серии как можно дольше чтобы релизёр не столько продолжал раздавать старые серии, а смог сконцентрироваться на новых.

Информация о торренте:
Размер содержимого: 9.0 GB
Скачан: 302 раза
Статус: Обновляемая раздача
Зарегистрирован на трекере: 2019-09-19 05:21
Скачать торрент


Поддержи раздачу — поставь лайк:
E-mail:
* Это обновляемая раздача и мы можем вас информировать об обновлении торрента в ней.

OLEG270877
2019-09-12 11:46
__________

______________________ Приятного просмотра!!!


____________
__________________________

_____________________________________________________
malissima
2019-09-12 21:59
3-й сезон, шикарно! Спасибо огромное, OLEG270877! :thanks:
Писать комментарии на нашем торрент-трекере могут только зарегистрированные пользователи.
Зарегистрируйтесь или авторизируйтесь на сайте.