»
»

Скачать сериал Становясь богом в центральной Флориде, 1 сезон 1-5 серии из 10 / On becoming a god in central Florida [HDRezka Studio] (Чарли МакДауэлл, Триша Брок, Родмен Флендер) [2019, Комедия, WEBRip 1080p, P] - торрент

Скачать сериал бесплатно через торрент. Сериал доступен на нашем торрент-трекере бесплатно, без регистрации и смс.

Статистика раздачи
0 [ 0 b/s ] ↑ 21.9 GB ↓ 0 [ 0 b/s ]
Автор Сообщение
OLEG270877
2019-09-06 06:35
Становясь богом в центральной Флориде / On becoming a god in central Florida
Становясь богом в центральной Флориде, 1 сезон 1-5 серии из 10 / On becoming a god in central Florida [HDRezka Studio]
Перевод: Профессиональный (многоголосый, закадровый) HDRezka Studio
Субтитры: Русские, английские
Формат: WEBRip, MKV, h.264, АС3
Страна: США
Режиссер: Чарли МакДауэлл, Триша Брок, Родмен Флендер
Жанр: Комедия
Озвучивание: HDRezka Studio
Всего серий: 10
Продолжительность: 5 x ~00:45:00
Год выпуска: 2019

В ролях: Кирстен Данст, Теодор Пеллерен, Мэл Родригез, Бет Дитто, Тед Левайн, Усман Элли, Эрик Аллан Крамер, Купер Джек Рубин, Александр Скарсгард, Мэри Стинберген др.

Описание: История расскажет о культе свободного предпринимательства и неутомимом стремлении одной женщины осуществить «американскую мечту». Оставшаяся без гроша в кармане и недавно овдовевшая работница аквапарка Кристал Джилл путём обмана и жульничества движется к вершине финансовой пирамиды «Основатели американской торговли», невзирая на то что этот многомиллиардный бизнес однажды уже разрушил её жизнь.



Видео: 1920x1080 (16:9), 23,976 fps, AVC (х264), High@L4, ~12100 kbps avg, 0.243 bit/pixel
Аудио RUS: 48 kHz, AC3 Dolby Digital, 2/0 (L,R) ch, ~384 kbps - HDRezka Studio
Аудио ENG: 48 kHz, Е-AC3 Dolby Digital, 3/2 (L,C,R,l,r) + LFE ch, ~640 kbps - Оригинал

В сериале присутствует ненормативная лексика!



MediaInfo
Общее
Уникальный идентификатор : 153756048218370955838374960319235535638 (0x73AC5676178CF25D5BB65AFC2B1EB316)
Полное имя : On.Becoming.a.God.in.Central.Florida.S01Е01.1080p.WEBRip.HDRezka.mkv
Формат : Matroska
Версия формата : Version 4
Размер файла : 4,06 Гбайт
Продолжительность : 44 м. 21 с.
Общий поток : 13,1 Мбит/сек
Дата кодирования : UTC 2019-09-12 12:31:38
Программа кодирования : mkvmerge v37.0.0 ('Leave It') 64-bit
Библиотека кодирования : libebml v1.3.9 + libmatroska v1.5.2

Видео
Идентификатор : 1
Формат : AVC
Формат/Информация : Advanced Video Codec
Профиль формата : High@L4
Настройки формата : CABAC / 4 Ref Frames
Параметр CABAC формата : Да
Параметр RefFrames формата : 4 кадра
Идентификатор кодека : V_MPEG4/ISO/AVC
Продолжительность : 44 м. 21 с.
Битрейт : 12,1 Мбит/сек
Ширина : 1920 пикселей
Высота : 1080 пикселей
Соотношение сторон : 16:9
Режим частоты кадров : Постоянный
Частота кадров : 23,976 (24000/1001) кадра/сек
Цветовое пространство : YUV
Субдискретизация насыщенности : 4:2:0
Битовая глубина : 8 бит
Тип развёртки : Прогрессивная
Бит/(Пиксели*Кадры) : 0.243
Размер потока : 3,74 Гбайт (92%)
Язык : English
Default : Да
Forced : Нет
Цветовой диапазон : Limited
Основные цвета : BT.709
Характеристики трансфера : BT.709
Коэффициенты матрицы : BT.709

Аудио #1
Идентификатор : 2
Формат : AC-3
Формат/Информация : Audio Coding 3
Коммерческое название : Dolby Digital
Идентификатор кодека : A_AC3
Продолжительность : 44 м. 21 с.
Вид битрейта : Постоянный
Битрейт : 384 Кбит/сек
Каналы : 2 канала
ChannelLayout : L R
Частота : 48,0 КГц
Частота кадров : 31,250 кадров/сек (1536 SPF)
Метод сжатия : С потерями
Размер потока : 122 Мбайт (3%)
Заголовок : HDRezka Studio
Язык : Russian
Default : Да
Forced : Нет

Аудио #2
Идентификатор : 3
Формат : E-AC-3
Формат/Информация : Enhanced AC-3
Коммерческое название : Dolby Digital Plus
Идентификатор кодека : A_EAC3
Продолжительность : 44 м. 21 с.
Вид битрейта : Постоянный
Битрейт : 640 Кбит/сек
Каналы : 6 каналов
ChannelLayout : L R C LFE Ls Rs
Частота : 48,0 КГц
Частота кадров : 31,250 кадров/сек (1536 SPF)
Метод сжатия : С потерями
Задержка видео : 24 мс.
Размер потока : 203 Мбайт (5%)
Язык : English
Default : Нет
Forced : Нет

Текст #1
Идентификатор : 4
Формат : UTF-8
Идентификатор кодека : S_TEXT/UTF8
Идентификатор кодека/Информация : UTF-8 Plain Text
Продолжительность : 41 м. 47 с.
Битрейт : 110 бит/сек
ElementCount : 711
Размер потока : 33,8 Кбайт (0%)
Язык : Russian
Default : Да
Forced : Нет

Текст #2
Идентификатор : 5
Формат : UTF-8
Идентификатор кодека : S_TEXT/UTF8
Идентификатор кодека/Информация : UTF-8 Plain Text
Продолжительность : 44 м. 5 с.
Битрейт : 80 бит/сек
ElementCount : 948
Размер потока : 26,1 Кбайт (0%)
Заголовок : SDH
Язык : English
Default : Нет
Forced : Нет
Внимание! Раздача ведётся путём добавления новых серий
Внимание! Раздача ведётся путём добавления новых серий; при каждом добавлении создаётся новый торрент. Чтобы начать докачку новой серии, пользователям необходимо сделать следующее:
(1) остановить скачивание,
(2) удалить старый торрент у себя из клиента (старые серии удалять не надо),
(3) скачать новый торрент и запустить его у себя в клиенте вместо старого, при этом указать клиенту путь в старую папку куда и должно происходить скачивание новых серий.

Ваш клиент при этом должен произвести хеширование (проверку) старой папки (если не производит сам - помогите ему сделать это), и будет докачивать только те серии которых у вас ещё нет. Старые серии при этом не удаляются, а продолжают раздаваться!

Eсли вы уже удалили старые серии, то предотвратить повторную закачку старых серий можно, отжав галочку в соответсвующих местах при запуске нового торрента. По возможности, желательно не удалять старые серии как можно дольше чтобы релизёр не столько продолжал раздавать старые серии, а смог сконцентрироваться на новых.

Информация о торренте:
Размер содержимого: 21.9 GB
Скачан: 302 раза
Статус: Обновляемая раздача
Зарегистрирован на трекере: 2019-09-17 09:59
Скачать торрент


Поддержи раздачу — поставь лайк:
E-mail:
* Это обновляемая раздача и мы можем вас информировать об обновлении торрента в ней.

OLEG270877
2019-09-06 05:36
__________

______________________ Приятного просмотра!!!


____________
__________________________

_____________________________________________________
Писать комментарии на нашем торрент-трекере могут только зарегистрированные пользователи.
Зарегистрируйтесь или авторизируйтесь на сайте.