»
»

Скачать сериал Жуки (1-13 серии из 16) (Константин Смирнов (VI)) / [2019, комедия, WEBRip-AVC] - торрент

Скачать через торрент сериал вы можете, нажав на синюю кнопку. Сериал доступен на нашем торрент-трекере бесплатно, без регистрации и смс.

Статистика раздачи
0 [ 0 b/s ] ↑ 3.8 GB ↓ 0 [ 0 b/s ]
Автор Сообщение
BLIZNEC W
2019-09-04 14:19
Жуки (1-13 серии из 16)
Жуки Перевод: Не требуется, cубтитры: отсутствуют
Формат: WEBRip-AVC, MKV, H.264, AC3
Страна: Россия
Режиссер: Константин Смирнов (VI)
Жанр: комедия
Всего серий: 16
Продолжительность: 13 х ~ 00:25:00
Год выпуска: 2019

В ролях: Вячеслав Чепурченко, Вадим Дубровин, Павел Комаров (II), Владимир Епифанцев, Максим Лагашкин, Екатерина Стулова, Анастасия Акатова, Дмитрий Бычков, Игорь Верник, Юлия Яблонская, Дмитрий Радонов, Валерия Мотина, Елена Ивченко, Сергей Калашников, Георгий Стрелянный, Владимир Устюгов, Денис Мелешко, Сергей Фролов, Олег Дуленин

Описание: Трое юных московских программистов находятся в шаге от заключения контракта с крупным инвестором. Основная цель Никиты, Артемия и Дениса – любой ценой откупиться от альтернативной службы и уехать из деревни в Москву. Поначалу им кажется, что это займёт всего несколько дней, которых хватит для того, чтобы доделать и продать приложение. Но после того, как все их компьютеры и личные вещи сгорают, их положение значительно усложняется. На что пойдут герои ради того, чтобы продолжить работу?

Рейтинг и доп. информация:


Видео: 720х408, (16:9), 25 fps, AVC MPEG-4 (x264), High@L4.1 ~ 1550 kbps , 0.206 bit/pixel
Аудио: 48 kHz, АС3, 2/0 (L,R), ~192.00 kbps avg
Внимание! Раздача ведётся путём добавления новых серий
Внимание! Раздача ведётся путём добавления новых серий. При каждом добавлении создаётся новый торрент.
Чтобы начать докачку новой серии, пользователям необходимо сделать следующее:
1. Остановить скачивание.
2. Удалить старый торрент у себя из клиента (старые серии удалять не надо).
3. Скачать новый торрент и запустить его у себя в клиенте вместо старого, при этом указать клиенту путь в старую папку куда и должно происходить скачивание новых серий. Ваш клиент при этом должен произвести хеширование (проверку) старой папки и будет докачивать только те серии, которых у вас ещё нет. Старые серии при этом не удаляются, а продолжают раздаваться! Eсли вы уже удалили старые серии, то предотвратить повторную закачку старых серий можно, отжав галочку в соответствующих местах при запуске нового торрента.

MediaInfo
Общее
Уникальный идентификатор : 215634606760450716183756719349159995632 (0xA239B6F1605CDDB2A6DF3451B354A8F0)
Полное имя : D:Zhuki.WEBRip.(AVC).GeneralFilm2.Zhuki.WEBRip.(AVC).GeneralFilm.mkv
Формат : Matroska
Версия формата : Version 2
Размер файла : 299 Мбайт
Продолжительность : 24 м. 32 с.
Общий поток : 1704 Кбит/сек
Дата кодирования : UTC 2019-09-04 09:15:09
Программа кодирования : mkvmerge v7.8.0 ('River Man') 32bit built on Apr 3 2015 12:11:22
Библиотека кодирования : libebml v1.3.1 + libmatroska v1.4.2

Видео
Идентификатор : 1
Формат : AVC
Формат/Информация : Advanced Video Codec
Профиль формата : High@L4.1
Параметр CABAC формата : Да
Параметр ReFrames формата : 9 кадров
Идентификатор кодека : V_MPEG4/ISO/AVC
Продолжительность : 24 м. 32 с.
Битрейт : 1550 Кбит/сек
Ширина : 720 пикселей
Высота : 408 пикселей
Соотношение сторон : 16:9
Режим частоты кадров : Постоянный
Частота кадров : 25,000 кадров/сек
Цветовое пространство : YUV
Субдискретизация насыщенности : 4:2:0
Битовая глубина : 8 бит
Тип развёртки : Прогрессивная
Бит/(Пиксели*Кадры) : 0.206
Размер потока : 259 Мбайт (87%)
Библиотека кодирования : x264 core 146 r2538 121396c
Настройки программы : cabac=1 / ref=9 / deblock=1:-2:-1 / analyse=0x3:0x113 / me=umh / subme=9 / psy=1 / psy_rd=1.00:0.15 / mixed_ref=1 / me_range=32 / chroma_me=1 / trellis=2 / 8x8dct=1 / cqm=0 / deadzone=21,11 / fast_pskip=0 / chroma_qp_offset=-3 / threads=18 / lookahead_threads=3 / sliced_threads=0 / nr=0 / decimate=1 / interlaced=0 / bluray_compat=0 / constrained_intra=0 / bframes=9 / b_pyramid=2 / b_adapt=2 / b_bias=0 / direct=3 / weightb=1 / open_gop=0 / weightp=2 / keyint=250 / keyint_min=25 / scenecut=40 / intra_refresh=0 / rc_lookahead=40 / rc=2pass / mbtree=0 / bitrate=1511 / ratetol=1.0 / qcomp=0.60 / qpmin=0 / qpmax=69 / qpstep=4 / cplxblur=20.0 / qblur=0.5 / vbv_maxrate=14000 / vbv_bufsize=14000 / nal_hrd=none / filler=0 / ip_ratio=1.40 / pb_ratio=1.30 / aq=2:1.00
Default : Да
Forced : Нет
Цветовой диапазон : Limited
Основные цвета : BT.709
Характеристики трансфера : BT.709
Коэффициенты матрицы : BT.709

Аудио
Идентификатор : 2
Формат : AC-3
Формат/Информация : Audio Coding 3
Расширение режима : CM (complete main)
Параметр Endianness формата : Big
Идентификатор кодека : A_AC3
Продолжительность : 24 м. 32 с.
Вид битрейта : Постоянный
Битрейт : 192 Кбит/сек
Каналы : 2 канала
Расположение каналов : Front: L R
Частота : 48,0 КГц
Частота кадров : 31,250 кадров/сек (1536 spf)
Битовая глубина : 16 бит
Метод сжатия : С потерями
Размер потока : 33,7 Мбайт (11%)
Default : Да
Forced : Нет

Информация о торренте:
Размер содержимого: 3.8 GB
Скачан: 97 раз
Статус: Обновляемая раздача
Зарегистрирован на трекере: 2019-09-19 13:13
Скачать торрент


Поддержи раздачу — поставь лайк:
E-mail:
* Это обновляемая раздача и мы можем вас информировать об обновлении торрента в ней.

BLIZNEC W
2019-09-04 13:19
Интересного и приятного просмотра!!!

Мои раздачи
motoblock74
2019-09-15 18:22
Спасибо!!!
Писать комментарии на нашем торрент-трекере могут только зарегистрированные пользователи.
Зарегистрируйтесь или авторизируйтесь на сайте.