»
»

Скачать сериал Учителя (1-11 серии из 12) (Илья Куликов) / [2019, драма, мелодрама, WEBRip 720p] - торрент

Скачать торрент сериал можно, нажав на синюю кнопку ниже. Сериал доступен на нашем торрент-трекере бесплатно, без регистрации и смс.

Статистика раздачи
0 [ 0 b/s ] ↑ 13.7 GB ↓ 0 [ 0 b/s ]
Автор Сообщение
BLIZNEC W
2019-08-24 12:03
Учителя (1-11 серии из 12)
Учителя Перевод: Не требуется, cубтитры: отсутствуют
Формат: WEBRip 720p, MKV, H.264, AC3
Страна: Россия
Режиссер: Илья Куликов
Жанр: драма, мелодрама
Всего серий: 12
Продолжительность: 11 x ~ 00:54:00
Год выпуска: 2019

В ролях: Ирина Старшенбаум, Владимир Вдовиченков, Анна Котова-Дерябина, Ольга Дибцева, Маруся Климова, Алексей Ильин, Дмитрий Мазуров, Александр Ревенко, Ирина Чериченко, Егор Морозов, Савелий Кудряшов, Юлия Майборода, Алла Миронова, Руслан Герман, Руслан Медведев, Никита Абдулов, Михаил Бочаров, Илья Каданцев, Татьяна Мухина, Сергей Галахов, Александра Бадаева

Описание: Сергей, отец Маши и Тани, занимает высокий пост заместителя министра образования и постоянно меняет женщин, некоторые из которых – ровесницы его детей. Младшая дочь, Маша, – идеалистка: она категорически против участия отца в своей карьере и желает всего добиться сама. Она идет работать в обычную школу, где у неё начинается роман с отцом одного из своих учеников. Старшая дочь, Татьяна, напротив, с радостью пользуется служебным положением отца ради своей карьеры – но совершенно несчастна в семейной жизни. Она заводит интрижки с разными мужчинами, отчаянно пытаясь заполнить пустоту внутри себя.
«Вся правда о российском образовании»
Рейтинг и доп. информация:


Видео: 1280х536, (2,40:1), 25 fps, AVC MPEG-4 (x264), High@L4.1 ~ 3500 kbps , 0.200 bit/pixel
Аудио: 48 kHz, AC3, 2/0 (L,R) ch, ~192.00 kbps avg
Внимание! Раздача ведётся путём добавления новых серий
Внимание! Раздача ведётся путём добавления новых серий. При каждом добавлении создаётся новый торрент.
Чтобы начать докачку новой серии, пользователям необходимо сделать следующее:
1. Остановить скачивание.
2. Удалить старый торрент у себя из клиента (старые серии удалять не надо).
3. Скачать новый торрент и запустить его у себя в клиенте вместо старого, при этом указать клиенту путь в старую папку куда и должно происходить скачивание новых серий. Ваш клиент при этом должен произвести хеширование (проверку) старой папки и будет докачивать только те серии, которых у вас ещё нет. Старые серии при этом не удаляются, а продолжают раздаваться! Eсли вы уже удалили старые серии, то предотвратить повторную закачку старых серий можно, отжав галочку в соответствующих местах при запуске нового торрента.

MediaInfo
Общее
Уникальный идентификатор : 193545558815653964567673916540844345329 (0x919B84CBA942B1249B4E8C83CF4587F1)
Полное имя : C:\Uchitelya.2019.WEB-DL.(720p).ExKinoRay\Uchitelya.(01.seriya).2019.WEB-DL.(720p).ExKinoRay.mkv
Формат : Matroska
Версия формата : Version 4
Размер файла : 1,39 Гбайт
Продолжительность : 53 м. 41 с.
Общий поток : 3701 Кбит/сек
Дата кодирования : UTC 2019-08-22 18:26:50
Программа кодирования : mkvmerge v6.9.1 ('Blue Panther') 64bit built on Apr 18 2014 18:23:38
Библиотека кодирования : libebml v1.3.0 + libmatroska v1.4.1 / VideoReDo (Lavf56.25.101)

Видео
Идентификатор : 1
Формат : AVC
Формат/Информация : Advanced Video Codec
Профиль формата : High@L4.1
Настройки формата : CABAC / 9 Ref Frames
Параметр CABAC формата : Да
Параметр RefFrames формата : 9 кадров
Параметр GOP формата : M=2, N=24
Идентификатор кодека : V_MPEG4/ISO/AVC
Продолжительность : 53 м. 41 с.
Битрейт : 3500 Кбит/сек
Ширина : 1280 пикселей
Высота : 536 пикселей
Соотношение сторон : 2,40:1
Режим частоты кадров : Постоянный
Частота кадров : 25,000 кадров/сек
Цветовое пространство : YUV
Субдискретизация насыщенности : 4:2:0
Битовая глубина : 8 бит
Тип развёртки : Прогрессивная
Бит/(Пиксели*Кадры) : 0.200
Размер потока : 1,29 Гбайт (93%)
Default : Нет
Forced : Нет
Цветовой диапазон : Limited
Основные цвета : BT.709
Характеристики трансфера : BT.709
Коэффициенты матрицы : BT.709

Аудио
Идентификатор : 2
Формат : AC-3
Формат/Информация : Audio Coding 3
Коммерческое название : Dolby Digital
Идентификатор кодека : A_AC3
Продолжительность : 53 м. 41 с.
Вид битрейта : Постоянный
Битрейт : 192 Кбит/сек
Каналы : 2 канала
ChannelLayout : L R
Частота : 48,0 КГц
Частота кадров : 31,250 кадров/сек (1536 SPF)
Битовая глубина : 16 бит
Метод сжатия : С потерями
Размер потока : 73,7 Мбайт (5%)
Язык : Russian
ServiceKind/String : Complete Main
Default : Да
Forced : Нет

Информация о торренте:
Размер содержимого: 13.7 GB
Скачан: 151 раз
Статус: Обновляемая раздача
Зарегистрирован на трекере: 2019-10-17 07:47
Скачать торрент


Поддержи раздачу — поставь лайк:
E-mail:
* Это обновляемая раздача и мы можем вас информировать об обновлении торрента в ней.

BLIZNEC W
2019-08-24 11:03
Интересного и приятного просмотра!!!

Мои раздачи
Писать комментарии на нашем торрент-трекере могут только зарегистрированные пользователи.
Зарегистрируйтесь или авторизируйтесь на сайте.