»
»

Скачать сериал Наши парни, 1 сезон 1-10 серии из 10 / Our Boys [IdeaFilm] (Джозеф Седар, Тауфик Абу Вайль) [2019, драма, WEB-DLRip, Р2] - торрент

Нажмите синюю кнопку, чтобы cкачать бесплатно через торрент сериал. Сериал доступен на нашем торрент-трекере бесплатно, без регистрации и смс.

Статистика раздачи
0 [ 0 b/s ] ↑ 8.5 GB ↓ 0 [ 0 b/s ]
Автор Сообщение
D4IVER
2019-08-14 22:35
Наши парни / Our Boys
Наши парни, 1 сезон 1-10 серии из 10 / Our Boys [IdeaFilm]
Перевод: Профессиональный (двухголосый, закадровый) IdeaFilm
Субтитры: отсутствуют
Формат: WEB-DLRip, AVI, XviD, AC3
Страна: Израиль, США
Режиссер: Джозеф Седар, Тауфик Абу Вайль
Жанр: Драма
Всего серий: 10
Продолжительность: 10 х ~ 01:00:00
Год выпуска: 2019

В ролях: Шломи Элькабец, Джонни Арбид, Адам Габэй, Руба Блаль, Йааков Коэн, Шади Мари, Слава Бибергал, Моррис Коэн, Марина Шойф

Описание: Летом 2014 года боевики ХАМАС похитили и убили троих еврейских подростков. Израиль в одночасье охватили шок и ярость. Два дня спустя на восточной окраине Иерусалима было найдено сожжённое тело палестинского подростка Мохаммада. Агент из отдела внутреннего террора Шин Бет расследует эти дела в то время как безутешный отец Мохаммада готов на все - лишь бы добиться справедливости и наказать виновных в смерти сына.

[imdb=http://www.imdb.com/title/tt10517426/]

Видео: 720x400 (16:9), 23.976 fps, XviD MPEG-4 ~1760 kbps avg, 0.255 bit/pixel
Аудио #1 Rus: 48 kHz, AC3 Dolby Digital, 3/2 (L,C,R,l,r) + LFE ch, ~384 kbps

Внимание, присутствует реклама!

MediaInfo

Video
ID : 0
Format : MPEG-4 Visual
Format profile : Advanced Simple@L5
Format settings : BVOP2
Format settings, BVOP : 2
Format settings, QPel : No
Format settings, GMC : No warppoints
Format settings, Matrix : Default (H.263)
Muxing mode : Packed bitstream
Codec ID : XVID
Codec ID/Hint : XviD
Duration : 59 min 1 s
Bit rate : 1 760 kb/s
Width : 720 pixels
Height : 400 pixels
Display aspect ratio : 16:9
Frame rate : 23.976 (24000/1001) FPS
Color space : YUV
Chroma subsampling : 4:2:0
Bit depth : 8 bits
Scan type : Progressive
Compression mode : Lossy
Bits/(Pixel*Frame) : 0.255
Stream size : 743 MiB (82%)
Writing library : XviD 67

Audio
ID : 1
Format : AC-3
Format/Info : Audio Coding 3
Commercial name : Dolby Digital
Codec ID : 2000
Duration : 59 min 1 s
Bit rate mode : Constant
Bit rate : 384 kb/s
Channel(s) : 6 channels
Channel positions : Front: L C R, Side: L R, LFE
Sampling rate : 48.0 kHz
Frame rate : 31.250 FPS (1536 SPF)
Bit depth : 16 bits
Compression mode : Lossy
Stream size : 162 MiB (18%)
Alignment : Aligned on interleaves
Interleave, duration : 42 ms (1.00 video frame)
Interleave, preload duratio : 512 ms
Service kind : Complete Main

Информация о торренте:
Размер содержимого: 8.5 GB
Скачан: 1590 раз
Статус: Проверен
Зарегистрирован на трекере: 2019-10-08 23:13
Скачать торрент


Поддержи раздачу — поставь лайк:
malissima
2019-08-15 21:17
Замечательный актерский состав! :D
Писать комментарии на нашем торрент-трекере могут только зарегистрированные пользователи.
Зарегистрируйтесь или авторизируйтесь на сайте.