»
»

Скачать сериал Наши парни, 1 сезон 1-2 серии из 10 / Our Boys [IdeaFilm] (Джозеф Седар, Тауфик Абу Вайль) [2019, драма, WEB-DLRip, Р2] - торрент

Нажмите синюю кнопку, чтобы cкачать бесплатно через торрент сериал. Сериал доступен на нашем торрент-трекере бесплатно, без регистрации и смс.

Статистика раздачи
0 [ 0 b/s ] ↑ 1.7 GB ↓ 0 [ 0 b/s ]
Автор Сообщение
D4IVER
2019-08-14 22:35
Наши парни / Our Boys
Наши парни, 1 сезон 1-2 серии из 10 / Our Boys [IdeaFilm]
Перевод: Профессиональный (двухголосый, закадровый) IdeaFilm
Субтитры: отсутствуют
Формат: WEB-DLRip, AVI, XviD, AC3
Страна: США
Режиссер: Джозеф Седар, Тауфик Абу Вайль
Жанр: Драма
Всего серий: 10
Продолжительность: 2 х ~ 01:00:00
Год выпуска: 2019

В ролях: Шломи Элькабец, Майкл Алони, Лиор Ашкенази, Шади Марти, Руба Блал Асфор, Ноа Колер, Цахи Град, Джони Арбид, Рам Масарве, Адам Габай

Описание: Летом 2014 года боевики ХАМАС похитили и убили троих еврейских подростков. Израиль в одночасье охватили шок и ярость. Два дня спустя на восточной окраине Иерусалима было найдено сожжённое тело палестинского подростка Мохаммада. Агент из отдела внутреннего террора Шин Бет расследует эти дела в то время как безутешный отец Мохаммада готов на все - лишь бы добиться справедливости и наказать виновных в смерти сына.

[imdb=http://www.imdb.com/title/tt10517426/]

Видео: 720x400 (16:9), 23.976 fps, XviD MPEG-4 ~1760 kbps avg, 0.255 bit/pixel
Аудио #1 Rus: 48 kHz, AC3 Dolby Digital, 3/2 (L,C,R,l,r) + LFE ch, ~384 kbps

Внимание, присутствует реклама!
Раздача ведется путем добавления новых серий.

Внимание! Раздача ведётся путём добавления новых серий

Внимание! Раздача ведётся путём добавления новых серий; при каждом добавлении создаётся новый торрент. Чтобы начать докачку новой серии, пользователям необходимо сделать следующее:
(1) остановить скачивание,
(2) удалить старый торрент у себя из клиента (старые серии удалять не надо),
(3) скачать новый торрент и запустить его у себя в клиенте вместо старого, при этом указать клиенту путь в старую папку куда и должно происходить скачивание новых серий.

Ваш клиент при этом должен произвести хеширование (проверку) старой папки (если не производит сам - помогите ему сделать это), и будет докачивать только те серии которых у вас ещё нет. Старые серии при этом не удаляются, а продолжают раздаваться!

Eсли вы уже удалили старые серии, то предотвратить повторную закачку старых серий можно, отжав галочку в соответствующих местах при запуске нового торрента. По возможности, желательно не удалять старые серии как можно дольше, чтобы релизёр не столько продолжал раздавать старые серии, а смог сконцентрироваться на новых.
MediaInfo

Video
ID : 0
Format : MPEG-4 Visual
Format profile : Advanced Simple@L5
Format settings : BVOP2
Format settings, BVOP : 2
Format settings, QPel : No
Format settings, GMC : No warppoints
Format settings, Matrix : Default (H.263)
Muxing mode : Packed bitstream
Codec ID : XVID
Codec ID/Hint : XviD
Duration : 59 min 1 s
Bit rate : 1 760 kb/s
Width : 720 pixels
Height : 400 pixels
Display aspect ratio : 16:9
Frame rate : 23.976 (24000/1001) FPS
Color space : YUV
Chroma subsampling : 4:2:0
Bit depth : 8 bits
Scan type : Progressive
Compression mode : Lossy
Bits/(Pixel*Frame) : 0.255
Stream size : 743 MiB (82%)
Writing library : XviD 67

Audio
ID : 1
Format : AC-3
Format/Info : Audio Coding 3
Commercial name : Dolby Digital
Codec ID : 2000
Duration : 59 min 1 s
Bit rate mode : Constant
Bit rate : 384 kb/s
Channel(s) : 6 channels
Channel positions : Front: L C R, Side: L R, LFE
Sampling rate : 48.0 kHz
Frame rate : 31.250 FPS (1536 SPF)
Bit depth : 16 bits
Compression mode : Lossy
Stream size : 162 MiB (18%)
Alignment : Aligned on interleaves
Interleave, duration : 42 ms (1.00 video frame)
Interleave, preload duratio : 512 ms
Service kind : Complete Main

Информация о торренте:
Размер содержимого: 1.7 GB
Скачан: 278 раз
Статус: Обновляемая раздача
Зарегистрирован на трекере: 2019-08-14 21:35
Скачать торрент


Поддержи раздачу — поставь лайк:
E-mail:
* Это обновляемая раздача и мы можем вас информировать об обновлении торрента в ней.

malissima
2019-08-15 21:17
Замечательный актерский состав! :D
Писать комментарии на нашем торрент-трекере могут только зарегистрированные пользователи.
Зарегистрируйтесь или авторизируйтесь на сайте.