»
»

Скачать сериал Наши парни, 1 сезон 1-10 серии из 10 / Our Boys [IdeaFilm] (Джозеф Седар, Тауфик Абу Вайль) [2019, драма, WEB-DLRip 1080p, Р2] - торрент

Скачать бесплатный торрент сериал. Сериал доступен на нашем торрент-трекере бесплатно, без регистрации и смс.

Статистика раздачи
0 [ 0 b/s ] ↑ 29.0 GB ↓ 0 [ 0 b/s ]
Автор Сообщение
D4IVER
2019-08-14 22:35
Наши парни / Our Boys
Наши парни, 1 сезон 1-10 серии из 10 / Our Boys [IdeaFilm]
Перевод: Профессиональный (двухголосый, закадровый) IdeaFilm
Субтитры: отсутствуют
Формат: WEB-DLRip 1080p, MKV, H.264, AC3
Страна: Израиль, США
Режиссер: Джозеф Седар, Тауфик Абу Вайль
Жанр: Драма
Всего серий: 10
Продолжительность: 10 х ~ 01:00:00
Год выпуска: 2019

В ролях: Шломи Элькабец, Джонни Арбид, Адам Габэй, Руба Блаль, Йааков Коэн, Шади Мари, Слава Бибергал, Моррис Коэн, Марина Шойф

Описание: Летом 2014 года боевики ХАМАС похитили и убили троих еврейских подростков. Израиль в одночасье охватили шок и ярость. Два дня спустя на восточной окраине Иерусалима было найдено сожжённое тело палестинского подростка Мохаммада. Агент из отдела внутреннего террора Шин Бет расследует эти дела в то время как безутешный отец Мохаммада готов на все - лишь бы добиться справедливости и наказать виновных в смерти сына.

[imdb=http://www.imdb.com/title/tt10517426/]

Видео: 1920x1080 (16:9), 23.976 fps, AVC (х264), Main@L4.1, ~6795 Kbps avg, 0.137 bit/pixel
Аудио #1 Rus: 48 kHz, AC3 Dolby Digital, 3/2 (L,C,R,l,r) + LFE ch, ~384 kbps

Внимание, присутствует реклама!

MediaInfo

Video
ID : 1
Format : AVC
Format/Info : Advanced Video Codec
Format profile : Main@L4.1
Format settings : CABAC / 4 Ref Frames
Format settings, CABAC : Yes
Format settings, ReFrames : 4 frames
Codec ID : V_MPEG4/ISO/AVC
Duration : 59 min 1 s
Bit rate : 6 795 kb/s
Width : 1 920 pixels
Height : 1 080 pixels
Display aspect ratio : 16:9
Frame rate mode : Constant
Frame rate : 23.976 (24000/1001) FPS
Color space : YUV
Chroma subsampling : 4:2:0
Bit depth : 8 bits
Scan type : Progressive
Bits/(Pixel*Frame) : 0.137
Stream size : 2.80 GiB (95%)
Language : English
Default : Yes
Forced : No
Color range : Limited
Color primaries : BT.709
Transfer characteristics : BT.709
Matrix coefficients : BT.709

Audio
ID : 2
Format : AC-3
Format/Info : Audio Coding 3
Commercial name : Dolby Digital
Codec ID : A_AC3
Duration : 59 min 1 s
Bit rate mode : Constant
Bit rate : 384 kb/s
Channel(s) : 6 channels
Channel positions : Front: L C R, Side: L R, LFE
Sampling rate : 48.0 kHz
Frame rate : 31.250 FPS (1536 SPF)
Bit depth : 16 bits
Compression mode : Lossy
Stream size : 162 MiB (5%)
Title : IDEAFILM
Language : Russian
Service kind : Complete Main
Default : Yes
Forced : No

Информация о торренте:
Размер содержимого: 29.0 GB
Скачан: 1088 раз
Статус: Проверен
Зарегистрирован на трекере: 2019-10-08 23:13
Скачать торрент


Поддержи раздачу — поставь лайк:
Писать комментарии на нашем торрент-трекере могут только зарегистрированные пользователи.
Зарегистрируйтесь или авторизируйтесь на сайте.