»
»

Скачать Дикий пляж / Savage Beach (Энди Сидарис ) [1989, Боевик, комедия, приключения, HDRip-AVC] - торрент

Скачать бесплатный торрент .

Статистика раздачи
0 [ 0 b/s ] ↑ 745.3 MB ↓ 0 [ 0 b/s ]
Автор Сообщение
sany771
2019-07-25 09:52
Дикий пляж / Savage Beach
Дикий пляж / Savage Beach
Перевод: Авторский (Вартан Дохалов), субтитры: отсутствуют
Формат: HDRip-AVC, MKV, H.264, AAC
Страна: США
Режиссер: Энди Сидарис
Жанр: Боевик, комедия, приключения
Продолжительность: 01:34:39
Год выпуска: 1989
В ролях: Дона Спейр, Хоуп Мэри Карлтон, Джон Эпри, Брюс Пенхалл, Родриго Обрегон, Майкл Микаса, Майкл Дж. Шэйн, Дэнн Секи, Аль Леонг, Эрик Чен

Описание: Ещё одна история от Энди Сидариса про девушек из Управления по борьбе с наркотиками. Сюжет в целом присутствует: тут и федеральные агенты, и затонувшее японское судно с золотом времён 2-ой Мировой, и различные бандюки, пытающиеся это золото присвоить. Но основная цель господина Сидариса, разумеется - показать побольше сцен с полу- и полностью обнажёнными девушками на фоне красивейшей природы, да ещё и с оружием в руках, что смотрится очень даже превосходно. Снялись здесь такие знаменитые Плэйбоевские звёздочки 80-х как Dona Speir, Hope Marie Carlton, Teri Weigel, Lisa London, Patty Duffek.

[imdb=https://www.imdb.com/title/tt0098257/]


Видео: 768x432 (16:9), 23,976 fps, AVC MPEG-4, High@L4.1 ~ 1023 kbps avg, 0.129 bit/pixel
Аудио: 48.0 kHz, AAC-HE, 2 ch, ~76 kbps avg

MI

Общее
Уникальный идентификатор: 302429004210368900009503055659166228840 (0xE385B5206C7721E96847424137DE6168)
Полное имя: D:MOVIESSavage.Beach.1989.HDRip-AVC.ExKinoRay.mkv
Формат: Matroska
Версия формата: Version 4 / Version 2
Размер файла: 745 Мбайт
Продолжительность: 1 ч. 34 м.
Общий поток: 1101 Кбит/сек
Дата кодирования: UTC 2019-07-25 04:48:23
Программа кодирования: mkvmerge v35.0.0 ('All The Love In The World') 64-bit
Библиотека кодирования: libebml v1.3.9 + libmatroska v1.5.2

Видео
Идентификатор: 1
Формат: AVC
Формат/Информация: Advanced Video Codec
Профиль формата: High@L4.1
Параметр CABAC формата: Да
Параметр RefFrames формата: 12 кадров
Идентификатор кодека: V_MPEG4/ISO/AVC
Продолжительность: 1 ч. 34 м.
Битрейт: 1023 Кбит/сек
Ширина: 768 пикселей
Высота: 432 пикселя
Соотношение сторон: 16:9
Режим частоты кадров: Постоянный
Частота кадров: 23,976 (24000/1001) кадра/сек
Цветовое пространство: YUV
Субдискретизация насыщенности: 4:2:0
Битовая глубина: 8 бит
Тип развёртки: Прогрессивная
Бит/(Пиксели*Кадры): 0.129
Размер потока: 693 Мбайт (93%)
Библиотека кодирования: x264 core 152 r2851kMod ba24899
Настройки программы: cabac=1 / ref=12 / deblock=1:-3:-2 / analyse=0x3:0x133 / me=umh / subme=10 / psy=1 / fade_compensate=0.00 / psy_rd=1.00:0.15 / mixed_ref=1 / me_range=32 / chroma_me=1 / trellis=2 / 8x8dct=1 / cqm=0 / deadzone=21,11 / fast_pskip=0 / chroma_qp_offset=-3 / threads=6 / lookahead_threads=1 / sliced_threads=0 / nr=0 / decimate=0 / interlaced=0 / bluray_compat=0 / constrained_intra=0 / bframes=12 / b_pyramid=2 / b_adapt=2 / b_bias=0 / direct=3 / weightb=1 / open_gop=0 / weightp=2 / keyint=240 / keyint_min=23 / scenecut=40 / intra_refresh=0 / rc_lookahead=40 / rc=2pass / mbtree=1 / bitrate=1023 / ratetol=1.0 / qcomp=0.60 / qpmin=0 / qpmax=69 / qpstep=4 / cplxblur=20.0 / qblur=0.5 / ip_ratio=1.40 / aq=3:1.00
Default: Да
Forced: Нет

Аудио
Идентификатор: 2
Формат: AAC
Формат/Информация: Advanced Audio Codec
Профиль формата: HE-AAC / LC
Идентификатор кодека: A_AAC
Продолжительность: 1 ч. 34 м.
Битрейт: 76,0 Кбит/сек
Каналы: 2 канала
Расположение каналов: Front: L R
Частота: 48,0 КГц / 24,0 КГц
Частота кадров: 23,438 кадра/сек (1024 SPF)
Метод сжатия: С потерями
Задержка видео: 31 мс.
Размер потока: 51,5 Мбайт (7%)
Default: Да
Forced: Нет

Меню
00:00:00.000: en:Chapter 01
00:06:37.647: en:Chapter 02
00:15:53.953: en:Chapter 03
00:23:29.282: en:Chapter 04
00:31:40.315: en:Chapter 05
00:37:40.883: en:Chapter 06
00:46:46.637: en:Chapter 07
00:58:41.100: en:Chapter 08
01:09:36.839: en:Chapter 09
01:18:24.366: en:Chapter 10
01:27:10.350: en:Chapter 11
01:31:48.085: en:Chapter 12

Информация о торренте:
Размер содержимого: 745.3 MB
Скачан: 333 раза
Статус: Проверен
Зарегистрирован на трекере: 2019-07-25 08:52
Скачать торрент


Поддержи раздачу — поставь лайк:
Писать комментарии на нашем торрент-трекере могут только зарегистрированные пользователи.
Зарегистрируйтесь или авторизируйтесь на сайте.