»
»

Скачать фильм Военный парад, посвященный Дню Независимости Республики Беларусь (03.07.2019) (МИР Premium HD) / [2019, Репортаж, HDTV 1080р] - торрент

Скачать торрент фильм можно, нажав на синюю кнопку ниже. Фильм доступен на нашем торрент-трекере бесплатно, без регистрации и смс.

Статистика раздачи
0 [ 0 b/s ] ↑ 4.7 GB ↓ 0 [ 0 b/s ]
Автор Сообщение
Astarot999
2019-07-07 15:51
Военный парад, посвященный Дню Независимости Республики Беларусь (03.07.2019)
Военный парад, посвященный Дню Независимости Республики Беларусь Перевод: Не требуется, cубтитры: отсутствуют
Формат: HDTV, MPEG-TS, AVC, MP2
Страна: Беларусь
Режиссер: МИР Premium HD
Жанр: Репортаж
Продолжительность: 01:24:29
Год выпуска: 2019
Описание:
Российские военнослужащие приняли участие в параде, посвящённом Дню независимости Республики Беларусь. Сегодня в Минске состоялся военный парад, посвящённый Дню независимости Республики Беларусь, в котором приняли участие более 300 военнослужащих, боевая техника и авиация Западного военного округа. В составе пешего парадного расчёта Вооружённые Силы Российской Федерации были представлены офицерами и солдатами Кантемировской танковой дивизией. В механизированной колонне были оперативно-тактические ракетные комплексы «Искандер», бронетранспортеры БТР-82А, автомобили повышенной проходимости семейства УАЗ. В авиационной части парада задействовались вертолёты Ми-8, разведывательно-ударные Ка-52, многоцелевые истребители Су-30 и сверхманёвренные Су-37

Видео: 1920x1080 (16:9), 25.000 fps, AVC Main@L4.0 ~7245 kbps avg, 0.140 bit/pixel
Аудио: 48 kHz, MPEG Layer 2, 2 ch, ~320.00 kbps avg

MI
[pre]
General
ID : 1 (0x1)
Complete name : H:\Военный парад, посвященный Дню Независимости Республики Беларусь 20190703.ts
Format : MPEG-TS
File size : 4.70 GiB
Duration : 1 h 24 min
Overall bit rate mode : Variable
Overall bit rate : 7 962 kb/s

Video
ID : 3272 (0xCC8)
Menu ID : 3271 (0xCC7)
Format : AVC
Format/Info : Advanced Video Codec
Format profile : Main@L4
Format settings : CABAC / 4 Ref Frames
Format settings, CABAC : Yes
Format settings, Reference fra : 4 frames
Codec ID : 27
Duration : 1 h 24 min
Bit rate : 7 245 kb/s
Width : 1 920 pixels
Height : 1 080 pixels
Display aspect ratio : 16:9
Frame rate : 25.000 FPS
Color space : YUV
Chroma subsampling : 4:2:0
Bit depth : 8 bits
Scan type : Interlaced
Scan type, store method : Separated fields
Scan order : Top Field First
Bits/(Pixel*Frame) : 0.140
Stream size : 4.28 GiB (91%)
Color range : Limited
Color primaries : BT.709
Transfer characteristics : BT.709
Matrix coefficients : BT.709

Audio
ID : 3275 (0xCCB)
Menu ID : 3271 (0xCC7)
Format : MPEG Audio
Format version : Version 1
Format profile : Layer 2
Codec ID : 3
Duration : 1 h 24 min
Bit rate mode : Constant
Bit rate : 320 kb/s
Channel(s) : 2 channels
Sampling rate : 48.0 kHz
Frame rate : 41.667 FPS (1152 SPF)
Compression mode : Lossy
Stream size : 193 MiB (4%)
Language : Russian

[/pre]

Информация о торренте:
Размер содержимого: 4.7 GB
Скачан: 246 раз
Статус: Проверен
Зарегистрирован на трекере: 2019-07-07 14:51
Скачать торрент


Поддержи раздачу — поставь лайк:
Писать комментарии на нашем торрент-трекере могут только зарегистрированные пользователи.
Зарегистрируйтесь или авторизируйтесь на сайте.