»
»

Скачать Топ Гир, 27 сезон 1-5 серии из 5 / Top Gear [IdeaFilm] (Брайан Клейн, Фил Чурчуорд, Найджел Симпкисс) [2019, авто-шоу, HDTVRip 720p, Р] - торрент

Бесплатные торренты всегда на нашем сайте и в хорошем качестве!

Статистика раздачи
0 [ 0 b/s ] ↑ 9.5 GB ↓ 0 [ 0 b/s ]
Автор Сообщение
D4IVER
2019-06-21 13:11
Топ Гир / Top Gear
Топ Гир, 27 сезон 1-5 серии из 5 / Top Gear [IdeaFilm]
Перевод: Профессиональный (многоголосый, закадровый) IdeaFilm
Субтитры: отсутствуют
Формат: HDTVRip 720p, MKV, H.264, AC3
Страна: Великобритания
Режиссер: Брайан Клейн, Фил Чурчуорд, Найджел Симпкисс
Жанр: Авто-шоу
Всего серий: 5
Продолжительность: 5 x ~ 01:02:00
Год выпуска: 2017

В ролях: Крис Харрис, Падди Макгинесс, Эндрю “Фредди” Флинтофф, Стиг

Описание: 27-й сезон популярного автомобильного шоу будут вести Крис Харрис и двое новых соведущих: комик Падди Макгинесс и бывший игрок в крикет Эндрю “Фредди” Флинтофф. По сюжету одной из серий, шоумены купили катафалк Daimler 1995 года за 1300 фунтов стерлингов, чтобы превратить его в семейный автомобиль. И во время испытания на грунтовках Уэльса всё пошло не по плану…

[imdb=http://www.imdb.com/title/tt1628033/]

Видео: 1280x720 (16:9), 25.000 fps, AVC (х264), Main@L4.1, ~3977 kbps avg, 0.173 bit/pixel
Аудио #1 Rus: 48 kHz, AC3 Dolby Digital, 2/0 (L,R), ~384 kbps

Внимание, присутствует реклама!

MediaInfo

Video
ID : 1
Format : AVC
Format/Info : Advanced Video Codec
Format profile : Main@L4.1
Format settings : CABAC / 4 Ref Frames
Format settings, CABAC : Yes
Format settings, ReFrames : 4 frames
Codec ID : V_MPEG4/ISO/AVC
Duration : 1 h 3 min
Bit rate : 3 977 kb/s
Width : 1 280 pixels
Height : 720 pixels
Display aspect ratio : 16:9
Frame rate mode : Constant
Frame rate : 25.000 FPS
Color space : YUV
Chroma subsampling : 4:2:0
Bit depth : 8 bits
Scan type : Progressive
Bits/(Pixel*Frame) : 0.173
Stream size : 1.76 GiB (91%)
Language : English
Default : Yes
Forced : No
Color range : Limited
Color primaries : BT.709
Transfer characteristics : BT.709
Matrix coefficients : BT.709

Audio
ID : 2
Format : AC-3
Format/Info : Audio Coding 3
Commercial name : Dolby Digital
Codec ID : A_AC3
Duration : 1 h 3 min
Bit rate mode : Constant
Bit rate : 384 kb/s
Channel(s) : 2 channels
Channel positions : Front: L R
Sampling rate : 48.0 kHz
Frame rate : 31.250 FPS (1536 SPF)
Bit depth : 16 bits
Compression mode : Lossy
Stream size : 174 MiB (9%)
Title : IDEAFILM
Language : Russian
Service kind : Complete Main
Default : Yes
Forced : No

Информация о торренте:
Размер содержимого: 9.5 GB
Скачан: 601 раз
Статус: Проверен
Зарегистрирован на трекере: 2019-07-16 18:41
Скачать торрент


Поддержи раздачу — поставь лайк:
Писать комментарии на нашем торрент-трекере могут только зарегистрированные пользователи.
Зарегистрируйтесь или авторизируйтесь на сайте.