»
»

Скачать сериал Рассказ служанки, 3 сезон 1-13 серии из 13 / The Handmaid's Tale [IdeaFilm] (Майк Баркер) [2019, фантастика, драма, WEB-DLRip, Р] - торрент

Нажмите на синюю кнопку, чтобы скачать сериал через торрент бесплатно. Сериал доступен на нашем торрент-трекере бесплатно, без регистрации и смс.

Статистика раздачи
0 [ 0 b/s ] ↑ 7.7 GB ↓ 0 [ 0 b/s ]
Автор Сообщение
D4IVER
2019-06-07 06:43
Рассказ служанки / The Handmaid's Tale
Рассказ служанки, 3 сезон 1-13 серии из 13 / The Handmaid's Tale [IdeaFilm]
Перевод: Профессиональный (многоголосый, закадровый) IdeaFilm
Субтитры: отсутствуют
Формат: WEB-DLRip, AVI, XviD, AC3
Страна: США
Режиссер: Майк Баркер
Жанр: Фантастика, драма
Всего серий: 13
Продолжительность: 13 х ~ 00:55:00
Год выпуска: 2019

В ролях: Элизабет Мосс, Ивонн Страховски, Джозеф Файнс, Энн Дауд, Аманда Бругел, Мадлен Брюэр, Макс Мингелла, Нина Кири, О. Т. Фагбенли, Алексис Бледел, Самира Уайли, Брэдли Уитфорд

Описание: Действие разворачивается в республике Гилеад, где у власти стоят военные. В стране жестокие порядки и нравы, уважением в обществе пользуются только офицеры и их жены. Но по никому неизвестным причинам у жен офицеров не рождаются дети. Чтобы продолжить офицерский род, офицеры и их жены выбирают из числа простых девушек ту, которая будет вынашивать их будущего ребенка. Молодые девушки, носители офицерских отпрысков, живут в специальных охраняемых помещениях, больше всего напоминающих тюрьму, и знают, что сразу после родов им придется расстаться со своими детьми.

[imdb=http://www.imdb.com/title/tt5834204/]

Видео: 720x360 (2.00:1), 23.976 fps, XviD MPEG-4 ~1378 kbps avg, 0.222 bit/pixel
Аудио #1 Rus: 48 kHz, AC3 Dolby Digital, 2/0 (L,R), ~192 kbps

Внимание, присутствует реклама!

MediaInfo

Video
ID : 0
Format : MPEG-4 Visual
Format profile : Advanced Simple@L5
Format settings : BVOP2
Format settings, BVOP : 2
Format settings, QPel : No
Format settings, GMC : No warppoints
Format settings, Matrix : Default (H.263)
Muxing mode : Packed bitstream
Codec ID : XVID
Codec ID/Hint : XviD
Duration : 50 min 43 s
Bit rate : 1 378 kb/s
Width : 720 pixels
Height : 360 pixels
Display aspect ratio : 2.000
Frame rate : 23.976 (24000/1001) FPS
Color space : YUV
Chroma subsampling : 4:2:0
Bit depth : 8 bits
Scan type : Progressive
Compression mode : Lossy
Bits/(Pixel*Frame) : 0.222
Stream size : 500 MiB (87%)
Writing library : XviD 67

Audio
ID : 1
Format : AC-3
Format/Info : Audio Coding 3
Commercial name : Dolby Digital
Codec ID : 2000
Duration : 50 min 43 s
Bit rate mode : Constant
Bit rate : 192 kb/s
Channel(s) : 2 channels
Channel positions : Front: L R
Sampling rate : 48.0 kHz
Frame rate : 31.250 FPS (1536 SPF)
Bit depth : 16 bits
Compression mode : Lossy
Stream size : 69.6 MiB (12%)
Alignment : Aligned on interleaves
Interleave, duration : 42 ms (1.00 video frame)
Interleave, preload duratio : 512 ms
Service kind : Complete Main

Информация о торренте:
Размер содержимого: 7.7 GB
Скачан: 650 раз
Статус: Проверен
Зарегистрирован на трекере: 2019-08-14 21:37
Скачать торрент


Поддержи раздачу — поставь лайк:
Ягеловв
2019-07-04 05:51
спасибо
Джага47
2019-07-12 22:54
Большое, человеческое, СПАСИБО!) :thanks:
Kleopatra772177.
2019-07-30 02:53
Писать комментарии на нашем торрент-трекере могут только зарегистрированные пользователи.
Зарегистрируйтесь или авторизируйтесь на сайте.