»
»

Скачать сериал Рассказ служанки, 3 сезон 1-13 серии из 13 / The Handmaid's Tale [IdeaFilm] (Майк Баркер) [2019, фантастика, драма, WEB-DLRip 1080p, Р] - торрент

Нажмите на синюю кнопку ниже, чтобы скачать сериал бесплатно через торрент. Сериал доступен на нашем торрент-трекере бесплатно, без регистрации и смс.

Статистика раздачи
0 [ 0 b/s ] ↑ 34.5 GB ↓ 0 [ 0 b/s ]
Автор Сообщение
D4IVER
2019-06-07 06:43
Рассказ служанки / The Handmaid's Tale
Рассказ служанки, 3 сезон 1-13 серии из 13 / The Handmaid's Tale [IdeaFilm]
Перевод: Профессиональный (многоголосый, закадровый) IdeaFilm
Субтитры: отсутствуют
Формат: WEB-DLRip 1080p, MKV, H.264, AC3
Страна: США
Режиссер: Майк Баркер
Жанр: Фантастика, драма
Всего серий: 13
Продолжительность: 13 х ~ 00:55:00
Год выпуска: 2019

В ролях: Элизабет Мосс, Ивонн Страховски, Джозеф Файнс, Энн Дауд, Аманда Бругел, Мадлен Брюэр, Макс Мингелла, Нина Кири, О. Т. Фагбенли, Алексис Бледел, Самира Уайли, Брэдли Уитфорд

Описание: Действие разворачивается в республике Гилеад, где у власти стоят военные. В стране жестокие порядки и нравы, уважением в обществе пользуются только офицеры и их жены. Но по никому неизвестным причинам у жен офицеров не рождаются дети. Чтобы продолжить офицерский род, офицеры и их жены выбирают из числа простых девушек ту, которая будет вынашивать их будущего ребенка. Молодые девушки, носители офицерских отпрысков, живут в специальных охраняемых помещениях, больше всего напоминающих тюрьму, и знают, что сразу после родов им придется расстаться со своими детьми.

[imdb=http://www.imdb.com/title/tt5834204/]

Видео: 1920x960 (2.00:1), 23,976 fps, AVC (х264), Main@L4.1, ~6717 Kbps avg, 0.152 bit/pixel
Аудио #1 Rus: 48 kHz, AC3 Dolby Digital, 2/0 (L,R), ~192 kbps
Аудио #2 Eng: 48 kHz, AC3 Dolby Digital, 2/0 (L,R), ~384 kbps

Внимание, присутствует реклама!

MediaInfo

Video
ID : 1
Format : AVC
Format/Info : Advanced Video Codec
Format profile : Main@L4.1
Format settings : CABAC / 4 Ref Frames
Format settings, CABAC : Yes
Format settings, ReFrames : 4 frames
Codec ID : V_MPEG4/ISO/AVC
Duration : 50 min 43 s
Bit rate : 6 717 kb/s
Width : 1 920 pixels
Height : 960 pixels
Display aspect ratio : 2.000
Frame rate mode : Constant
Frame rate : 23.976 (24000/1001) FPS
Color space : YUV
Chroma subsampling : 4:2:0
Bit depth : 8 bits
Scan type : Progressive
Bits/(Pixel*Frame) : 0.152
Stream size : 2.38 GiB (92%)
Language : English
Default : Yes
Forced : No
Color range : Limited
Color primaries : BT.709
Transfer characteristics : BT.709
Matrix coefficients : BT.709

Audio #1
ID : 2
Format : AC-3
Format/Info : Audio Coding 3
Commercial name : Dolby Digital
Codec ID : A_AC3
Duration : 50 min 43 s
Bit rate mode : Constant
Bit rate : 192 kb/s
Channel(s) : 2 channels
Channel positions : Front: L R
Sampling rate : 48.0 kHz
Frame rate : 31.250 FPS (1536 SPF)
Bit depth : 16 bits
Compression mode : Lossy
Stream size : 69.6 MiB (3%)
Title : IDEAFILM
Language : Russian
Service kind : Complete Main
Default : Yes
Forced : No

Audio #2
ID : 3
Format : AC-3
Format/Info : Audio Coding 3
Codec ID : A_AC3
Duration : 50 min 2 s
Bit rate : 384 kb/s
Channel(s) : 2 channels
Sampling rate : 48.0 kHz
Frame rate : 31.250 FPS (1536 SPF)
Compression mode : Lossy
Stream size : 137 MiB (5%)
Language : English
Default : No
Forced : No

Информация о торренте:
Размер содержимого: 34.5 GB
Скачан: 426 раз
Статус: Проверен
Зарегистрирован на трекере: 2019-08-14 21:36
Скачать торрент


Поддержи раздачу — поставь лайк:
Kleopatra772177.
2019-07-30 02:54
Писать комментарии на нашем торрент-трекере могут только зарегистрированные пользователи.
Зарегистрируйтесь или авторизируйтесь на сайте.