»
»

Скачать мультфильм Арчер, 10 сезон 1-9 серия из 9 / Archer (Адам Рид, Брайан Фордни) [2019, Боевик, комедия, приключения, мультсериал, WEB-DL 1080p] MVO - торрент

Нажмите на синюю кнопку, чтобы скачать мультфильм через торрент бесплатно. Мультфильм доступен на нашем торрент-трекере бесплатно, без регистрации и смс.

Статистика раздачи
0 [ 0 b/s ] ↑ 8.9 GB ↓ 0 [ 0 b/s ]
Автор Сообщение
IdeaFilm
2019-06-01 02:49
Арчер / Archer
Арчер, 10 сезон 1-9 серия из 9 / Archer Перевод: Профессиональный (многоголосый, закадровый) IdeaFilm
Субтитры: отсутствуют
Формат: WEB-DL, MKV, h.264, AC3
Страна: США
Режиссер: Адам Рид, Брайан Фордни
Жанр: Боевик, комедия, приключения, мультсериал
Всего серий: 9
Продолжительность: 9х ~00:25:00
Год выпуска: 2019

В ролях: Джон Бенжамин, Джуди Грир, Крис Парнел, Аиша Тайлер, Джессика Уолтер, Амбер Нэш, Адам Рид, Джордж Коу, Дэйв Уиллис

Описание: В международном шпионском агенстве ISIS любой мировой кризис — лишь предлог для высококлассных секретных агентов посоревноваться между собой в обмане и предательстве. Главным героем мультсериала является спецагент Стерлинг Арчер, известный также под кодовым именем «Герцогиня». На службе Арчеру приходится мириться со своей эксцентричной мамашей/начальницей — Мэлори, бывшей подружкой Ланой, озабоченной секретаршей Шерил и другими «интересными личностями».

Рейтинг на: [imdb=https://www.imdb.com/title/tt1486217/?ref_=fn_al_tt_1]

Видео: 1920x1080 (16/9), 23,976 fps, AVC (х264), Main@L4, ~5953 kbps avg, 0.120 bit/pixel
Аудио #1: Русский:48 kHz, AC3 Dolby Digital, 3/2 (L,C,R,l,r) + LFE ch, ~384 kbps [Профессиональный (многоголосый, закадровый)] [IdeaFilm]
Аудио #2: Английский:48 kHz, AC3 Dolby Digital, 3/2 (L,C,R,l,r) + LFE ch, ~384 kbps [Original]
MediaInfo

Общее
Уникальный идентификатор : 123810515821733036940688974807064787321 (0x5D2509B9646775452C3126BA80FA3979)
Полное имя : G:\IDEAFILM\Archer.S10.WEB-DL.1080p\Archer.S10E01.WEB-DL.1080p.IdeaFilm.mkv
Формат : Matroska
Версия формата : Version 4
Размер файла : 1015 Мбайт
Продолжительность : 21 м. 6 с.
Режим общего битрейта : Постоянный
Общий поток : 6723 Кбит/сек
Дата кодирования : UTC 2019-05-31 19:18:41
Программа кодирования : mkvmerge v25.0.0 ('Prog Noir') 64-bit
Библиотека кодирования : libebml v1.3.6 + libmatroska v1.4.9

Видео
Идентификатор : 1
Формат : AVC
Формат/Информация : Advanced Video Codec
Профиль формата : High@L4
Настройки формата : CABAC / 4 Ref Frames
Параметр CABAC формата : Да
Параметр RefFrames формата : 4 кадра
Идентификатор кодека : V_MPEG4/ISO/AVC
Продолжительность : 21 м. 6 с.
Вид битрейта : Постоянный
Битрейт : 5953 Кбит/сек
Номинальный битрейт : 10000 Кбит/сек
Ширина : 1920 пикселей
Высота : 1080 пикселей
Соотношение сторон : 16:9
Режим частоты кадров : Постоянный
Частота кадров : 23,976 (24000/1001) кадра/сек
Цветовое пространство : YUV
Субдискретизация насыщенности : 4:2:0
Битовая глубина : 8 бит
Тип развёртки : Прогрессивная
Бит/(Пиксели*Кадры) : 0.120
Размер потока : 899 Мбайт (89%)
Default : Да
Forced : Нет
Цветовой диапазон : Limited
Основные цвета : BT.709
Характеристики трансфера : BT.709
Коэффициенты матрицы : BT.709

Аудио #1
Идентификатор : 2
Формат : AC-3
Формат/Информация : Audio Coding 3
Коммерческое название : Dolby Digital
Идентификатор кодека : A_AC3
Продолжительность : 21 м. 6 с.
Вид битрейта : Постоянный
Битрейт : 384 Кбит/сек
Каналы : 6 каналов
Channel layout : L R C LFE Ls Rs
Частота : 48,0 КГц
Частота кадров : 31,250 кадров/сек (1536 SPF)
Битовая глубина : 16 бит
Метод сжатия : С потерями
Размер потока : 58,0 Мбайт (6%)
Заголовок : IdeaFilm
Язык : Russian
ServiceKind/String : Complete Main
Default : Да
Forced : Нет

Аудио #2
Идентификатор : 3
Формат : AC-3
Формат/Информация : Audio Coding 3
Коммерческое название : Dolby Digital
Идентификатор кодека : A_AC3
Продолжительность : 21 м. 6 с.
Вид битрейта : Постоянный
Битрейт : 384 Кбит/сек
Каналы : 6 каналов
Channel layout : L R C LFE Ls Rs
Частота : 48,0 КГц
Частота кадров : 31,250 кадров/сек (1536 SPF)
Битовая глубина : 16 бит
Метод сжатия : С потерями
Размер потока : 58,0 Мбайт (6%)
Язык : English
ServiceKind/String : Complete Main
Default : Нет
Forced : Нет

Информация о торренте:
Размер содержимого: 8.9 GB
Скачан: 870 раз
Статус: Проверен
Зарегистрирован на трекере: 2019-08-03 03:40
Скачать торрент


Поддержи раздачу — поставь лайк:
Писать комментарии на нашем торрент-трекере могут только зарегистрированные пользователи.
Зарегистрируйтесь или авторизируйтесь на сайте.