»
»

Скачать мультфильм Арчер, 10 сезон 1-6 серия из 8 / Archer (Адам Рид, Брайан Фордни) [2019, Боевик, комедия, приключения, мультсериал, WEB-DL 720p] MVO - торрент

Скачать через торрент мультфильм вы можете, нажав на синюю кнопку. Мультфильм доступен на нашем торрент-трекере бесплатно, без регистрации и смс.

Статистика раздачи
0 [ 0 b/s ] ↑ 3.1 GB ↓ 0 [ 0 b/s ]
Автор Сообщение
IdeaFilm
2019-06-01 02:49
Арчер / Archer
Арчер, 10 сезон 1-6 серия из 8 / Archer Перевод: Профессиональный (многоголосый, закадровый) IdeaFilm
Субтитры: отсутствуют
Формат: WEB-DL, MKV, h.264, AC3
Страна: США
Режиссер: Адам Рид, Брайан Фордни
Жанр: Боевик, комедия, приключения, мультсериал
Всего серий: 8
Продолжительность: 6х ~00:25:00
Год выпуска: 2019

В ролях: Джон Бенжамин, Джуди Грир, Крис Парнел, Аиша Тайлер, Джессика Уолтер, Амбер Нэш, Адам Рид, Джордж Коу, Дэйв Уиллис

Описание: В международном шпионском агенстве ISIS любой мировой кризис — лишь предлог для высококлассных секретных агентов посоревноваться между собой в обмане и предательстве. Главным героем мультсериала является спецагент Стерлинг Арчер, известный также под кодовым именем «Герцогиня». На службе Арчеру приходится мириться со своей эксцентричной мамашей/начальницей — Мэлори, бывшей подружкой Ланой, озабоченной секретаршей Шерил и другими «интересными личностями».

Рейтинг на: [imdb=https://www.imdb.com/title/tt1486217/?ref_=fn_al_tt_1]

Видео: 1280x720 (16/9), 23,976 fps, AVC (х264), Main@L3.1, ~2803 kbps avg, 0.127 bit/pixel
Аудио #1: Русский:48 kHz, AC3 Dolby Digital, 3/2 (L,C,R,l,r) + LFE ch, ~384 kbps [Профессиональный (многоголосый, закадровый)] [IdeaFilm]
Аудио #2: Английский:48 kHz, AC3 Dolby Digital, 3/2 (L,C,R,l,r) + LFE ch, ~384 kbps [Original]

Внимание, присутствует реклама!
Внимание! Раздача ведётся путём добавления новых серий

Внимание! Раздача ведётся путём добавления новых серий; при каждом добавлении создаётся новый торрент. Чтобы начать докачку новой серии, пользователям необходимо сделать следующее:
(1) остановить скачивание,
(2) удалить старый торрент у себя из клиента (старые серии удалять не надо),
(3) скачать новый торрент и запустить его у себя в клиенте вместо старого, при этом указать клиенту путь в старую папку куда и должно происходить скачивание новых серий.

Ваш клиент при этом должен произвести хеширование (проверку) старой папки (если не производит сам - помогите ему сделать это), и будет докачивать только те серии которых у вас ещё нет. Старые серии при этом не удаляются, а продолжают раздаваться!

Eсли вы уже удалили старые серии, то предотвратить повторную закачку старых серий можно, отжав галочку в соответствующих местах при запуске нового торрента. По возможности, желательно не удалять старые серии как можно дольше, чтобы релизёр не столько продолжал раздавать старые серии, а смог сконцентрироваться на новых.
MediaInfo

Общее
Уникальный идентификатор : 141514294664230750082832251891890684756 (0x6A76A96972D80C363223BC4F68928354)
Полное имя : G:\IDEAFILM\Archer.S10.WEB-DL.720p\Archer.S10E01.WEB-DL.720p.IdeaFilm.mkv
Формат : Matroska
Версия формата : Version 4
Размер файла : 539 Мбайт
Продолжительность : 21 м. 6 с.
Режим общего битрейта : Постоянный
Общий поток : 3573 Кбит/сек
Дата кодирования : UTC 2019-05-31 19:19:09
Программа кодирования : mkvmerge v25.0.0 ('Prog Noir') 64-bit
Библиотека кодирования : libebml v1.3.6 + libmatroska v1.4.9

Видео
Идентификатор : 1
Формат : AVC
Формат/Информация : Advanced Video Codec
Профиль формата : High@L3.1
Настройки формата : CABAC / 4 Ref Frames
Параметр CABAC формата : Да
Параметр RefFrames формата : 4 кадра
Идентификатор кодека : V_MPEG4/ISO/AVC
Продолжительность : 21 м. 6 с.
Вид битрейта : Постоянный
Битрейт : 2803 Кбит/сек
Номинальный битрейт : 6000 Кбит/сек
Ширина : 1280 пикселей
Высота : 720 пикселей
Соотношение сторон : 16:9
Режим частоты кадров : Постоянный
Частота кадров : 23,976 (24000/1001) кадра/сек
Цветовое пространство : YUV
Субдискретизация насыщенности : 4:2:0
Битовая глубина : 8 бит
Тип развёртки : Прогрессивная
Бит/(Пиксели*Кадры) : 0.127
Размер потока : 423 Мбайт (78%)
Default : Да
Forced : Нет
Цветовой диапазон : Limited
Основные цвета : BT.709
Характеристики трансфера : BT.709
Коэффициенты матрицы : BT.709

Аудио #1
Идентификатор : 2
Формат : AC-3
Формат/Информация : Audio Coding 3
Коммерческое название : Dolby Digital
Идентификатор кодека : A_AC3
Продолжительность : 21 м. 6 с.
Вид битрейта : Постоянный
Битрейт : 384 Кбит/сек
Каналы : 6 каналов
Channel layout : L R C LFE Ls Rs
Частота : 48,0 КГц
Частота кадров : 31,250 кадров/сек (1536 SPF)
Битовая глубина : 16 бит
Метод сжатия : С потерями
Размер потока : 58,0 Мбайт (11%)
Заголовок : IdeaFilm
Язык : Russian
ServiceKind/String : Complete Main
Default : Да
Forced : Нет

Аудио #2
Идентификатор : 3
Формат : AC-3
Формат/Информация : Audio Coding 3
Коммерческое название : Dolby Digital
Идентификатор кодека : A_AC3
Продолжительность : 21 м. 6 с.
Вид битрейта : Постоянный
Битрейт : 384 Кбит/сек
Каналы : 6 каналов
Channel layout : L R C LFE Ls Rs
Частота : 48,0 КГц
Частота кадров : 31,250 кадров/сек (1536 SPF)
Битовая глубина : 16 бит
Метод сжатия : С потерями
Размер потока : 58,0 Мбайт (11%)
Язык : English
ServiceKind/String : Complete Main
Default : Нет
Forced : Нет

Информация о торренте:
Размер содержимого: 3.1 GB
Скачан: 549 раз
Статус: Обновляемая раздача
Зарегистрирован на трекере: 2019-07-12 15:17
Скачать торрент


Поддержи раздачу — поставь лайк:
E-mail:
* Это обновляемая раздача и мы можем вас информировать об обновлении торрента в ней.

Писать комментарии на нашем торрент-трекере могут только зарегистрированные пользователи.
Зарегистрируйтесь или авторизируйтесь на сайте.