»
»

Скачать сериал По волчьим законам, 4 сезон 1-13 серия из 13 / Animal Kingdom [IdeaFilm] (Джон Уэллс, Дэйв Родригез) [2019, драма, криминал, WEB-DL 720p, Р] - торрент

Нажмите на синюю кнопку, чтобы скачать сериал через торрент бесплатно. Сериал доступен на нашем торрент-трекере бесплатно, без регистрации и смс.

Статистика раздачи
0 [ 0 b/s ] ↑ 22.6 GB ↓ 0 [ 0 b/s ]
Автор Сообщение
IdeaFilm
2019-05-31 10:58
По волчьим законам / Animal Kingdom
По волчьим законам, 4 сезон 1-13 серия из 13 / Animal Kingdom [IdeaFilm]
Перевод: Профессиональный (многоголосый, закадровый) IdeaFilm
Субтитры: отсутствуют
Формат: WEB-DL, MKV, h.264, AC3
Страна: США
Режиссер: Джон Уэллс, Дэйв Родригез
Жанр: Драма, криминал
Всего серий: 13
Продолжительность: 13x ~ 00:51:00
Год выпуска: 2019

В ролях: Эллен Баркин, Шон Хэтоси, Бен Робсон, Джейк Вири, Финн Коул, Спенсер Трит Кларк, Кристина Очоа, Дичен Лакмэн, Лейла Джордж, Эмили Дешанель, Лукка Де Оливейра, Риго Санчес

Описание: На создание сериала создателей вдохновил одноимённый австралийский фильм Дэвида Мишо 2010 года. Это история о том, как 17-летний Джошуа Коди после смерти матери переезжает к своей родне в пляжный городок в Южной Калифорнии. Глава семьи Джанин Коди руководит семейным делом. Главный её помощник — старший из братьев Коди по имени Поуп. Остальные сыновья тоже помогают матери по мере сил. Вскоре Джошуа понимает, что фамильный бизнес связан с криминалом и что теперь он волей-неволей сделался частью этого нового для него смертельно опасного мира.

Рейтинг: [imdb=http://www.imdb.com/title/tt5574490/]

Видео: 1280x720 (16/9), 23,976 fps, AVC (х264), High@L3.1, ~4983 kbps avg, 0.226 bit/pixel
Аудио #1 Rus: :48 kHz, AC3 Dolby Digital, 3/2 (L,C,R,l,r) + LFE ch, ~384 kbps
Аудио #1 Eng: :48 kHz, AC3 Dolby Digital, 3/2 (L,C,R,l,r) + LFE ch, ~384 kbps

Внимание, присутствует реклама!
MediaInfo

Общее
Уникальный идентификатор : 58688889535027291267241763377216049084 (0x2C2711A86678D9B05F5A831F72D54FBC)
Полное имя : G:\IDEAFILM\Animal.Kingdom.S04.WEB-DL.720p\Animal.Kingdom.S04E01.WEB-DL.720p.IdeaFilm.mkv
Формат : Matroska
Версия формата : Version 4
Размер файла : 1,85 Гбайт
Продолжительность : 45 м. 56 с.
Режим общего битрейта : Постоянный
Общий поток : 5753 Кбит/сек
Дата кодирования : UTC 2019-05-30 21:35:16
Программа кодирования : mkvmerge v25.0.0 ('Prog Noir') 64-bit
Библиотека кодирования : libebml v1.3.6 + libmatroska v1.4.9

Видео
Идентификатор : 1
Формат : AVC
Формат/Информация : Advanced Video Codec
Профиль формата : High@L3.1
Настройки формата : CABAC / 4 Ref Frames
Параметр CABAC формата : Да
Параметр RefFrames формата : 4 кадра
Идентификатор кодека : V_MPEG4/ISO/AVC
Продолжительность : 45 м. 56 с.
Вид битрейта : Постоянный
Битрейт : 4983 Кбит/сек
Номинальный битрейт : 6000 Кбит/сек
Ширина : 1280 пикселей
Высота : 720 пикселей
Соотношение сторон : 16:9
Режим частоты кадров : Постоянный
Частота кадров : 23,976 (24000/1001) кадра/сек
Цветовое пространство : YUV
Субдискретизация насыщенности : 4:2:0
Битовая глубина : 8 бит
Тип развёртки : Прогрессивная
Бит/(Пиксели*Кадры) : 0.226
Размер потока : 1,60 Гбайт (87%)
Default : Да
Forced : Нет
Цветовой диапазон : Limited
Основные цвета : BT.709
Характеристики трансфера : BT.709
Коэффициенты матрицы : BT.709

Аудио #1
Идентификатор : 2
Формат : AC-3
Формат/Информация : Audio Coding 3
Коммерческое название : Dolby Digital
Идентификатор кодека : A_AC3
Продолжительность : 45 м. 56 с.
Вид битрейта : Постоянный
Битрейт : 384 Кбит/сек
Каналы : 6 каналов
Channel layout : L R C LFE Ls Rs
Частота : 48,0 КГц
Частота кадров : 31,250 кадров/сек (1536 SPF)
Битовая глубина : 16 бит
Метод сжатия : С потерями
Размер потока : 126 Мбайт (7%)
Заголовок : IdeaFilm
Язык : Russian
ServiceKind/String : Complete Main
Default : Да
Forced : Нет

Аудио #2
Идентификатор : 3
Формат : AC-3
Формат/Информация : Audio Coding 3
Коммерческое название : Dolby Digital
Идентификатор кодека : A_AC3
Продолжительность : 45 м. 56 с.
Вид битрейта : Постоянный
Битрейт : 384 Кбит/сек
Каналы : 6 каналов
Channel layout : L R C LFE Ls Rs
Частота : 48,0 КГц
Частота кадров : 31,250 кадров/сек (1536 SPF)
Битовая глубина : 16 бит
Метод сжатия : С потерями
Размер потока : 126 Мбайт (7%)
Язык : English
ServiceKind/String : Complete Main
Default : Нет
Forced : Нет

Информация о торренте:
Размер содержимого: 22.6 GB
Скачан: 1338 раз
Статус: Проверен
Зарегистрирован на трекере: 2019-08-22 19:55
Скачать торрент


Поддержи раздачу — поставь лайк:
Kleopatra772177.
2019-07-30 02:52
Писать комментарии на нашем торрент-трекере могут только зарегистрированные пользователи.
Зарегистрируйтесь или авторизируйтесь на сайте.