»
»

Скачать фильм Зеркальные войны: Отражение первое (1-4 серии из 4) (Василий Чигинский) / [2005, боевик, драма, криминал, WEBRip-AVC] Телеверсия - торрент

Скачать через торрент фильм вы можете, нажав на синюю кнопку. Фильм доступен на нашем торрент-трекере бесплатно, без регистрации и смс.

Статистика раздачи
0 [ 0 b/s ] ↑ 2.4 GB ↓ 0 [ 0 b/s ]
Автор Сообщение
BLIZNEC W
2019-05-16 09:31
Зеркальные войны: Отражение первое (1-4 серии из 4) Телеверсия
Зеркальные войны: Отражение первое Формат: WEBRip-AVC, MKV, H.264, AAC
Страна: Россия, США
Перевод: не требуется
Режиссер: Василий Чигинский
Жанр: боевик, драма, криминал
Продолжительность: 4 x ~ 00:45:00
Год выпуска: 2005

В ролях: Валерий Николаев, Михаил Горевой, Александр Ефимов, Малкольм МакДауэлл, Арманд Ассанте, Рутгер Хауэр, Ксения Алфёрова, Ивар Калныньш, Анатолий Журавлёв, Амалия Мордвинова, Валерий Афанасьев, Александр Кузнецов, Сергей Чонишвили, Александр Рапопорт, Ольга Яковцева, Владимир Виноградов, Александр Яковлев, Ксения Раппопорт, Олег Капанец, Татьяна Голованова

Описание: Главное действующее лицо картины режиссера Василия Чигинского – самый современный истребитель корпорации "Сухой", носящий кодовое название "СУ-XX". На его борту и разворачиваются самые главные события. Цель бывших сотрудников ЦРУ, в силу ряда обстоятельств отказавшихся работать в своей организации – чужими руками столкнуть два государства: Россию и США. В кабину "СУ-XX" попадает человек, который дает возможность террористам установить ракеты. В воздухе готовится покушение на самолет Президента.

Рейтинг и доп. информация:


Видео: 738x400, (1,85:1), 25 fps, AVC MPEG-4 (x264), Baseline@L3 ~ 1800 kbps , 0.244 bit/pixel
Аудио: 48.0 kHz, AAC, 2 ch (L R), ~ 192 Kbps avg
MediaInfo
Общее
Уникальный идентификатор : 285989540838566137237350531439424010738 (0xD72795011D4C42EBC363FB052AAD79F2)
Полное имя : C:\Зеркальные войны. Отражение первое\Зеркальные войны. Отражение первое (1 сер.).mkv
Формат : Matroska
Версия формата : Version 4
Размер файла : 625 Мбайт
Продолжительность : 43 м. 50 с.
Общий поток : 1992 Кбит/сек
Дата кодирования : UTC 2019-02-15 08:26:07
Программа кодирования : mkvmerge v31.0.0 ('Dolores In A Shoestand') 64-bit
Библиотека кодирования : libebml v1.3.6 + libmatroska v1.4.9

Видео
Идентификатор : 1
Формат : AVC
Формат/Информация : Advanced Video Codec
Профиль формата : Baseline@L3
Настройки формата : 1 Ref Frames
Параметр CABAC формата : Нет
Параметр RefFrames формата : 1 кадр
Идентификатор кодека : V_MPEG4/ISO/AVC
Продолжительность : 43 м. 50 с.
Битрейт : 1800 Кбит/сек
Ширина : 738 пикселей
Высота : 400 пикселей
Соотношение сторон : 1,85:1
Режим частоты кадров : Постоянный
Частота кадров : 25,000 кадров/сек
Цветовое пространство : YUV
Субдискретизация насыщенности : 4:2:0
Битовая глубина : 8 бит
Тип развёртки : Прогрессивная
Бит/(Пиксели*Кадры) : 0.244
Размер потока : 564 Мбайт (90%)
Default : Да
Forced : Нет

Аудио
Идентификатор : 2
Формат : AAC LC
Формат/Информация : Advanced Audio Codec Low Complexity
Идентификатор кодека : A_AAC-2
Продолжительность : 43 м. 50 с.
Битрейт : 192 Кбит/сек
Каналы : 2 канала
ChannelLayout : L R
Частота : 48,0 КГц
Частота кадров : 46,875 кадров/сек (1024 SPF)
Метод сжатия : С потерями
Размер потока : 60,2 Мбайт (10%)
Default : Да
Forced : Нет

Информация о торренте:
Размер содержимого: 2.4 GB
Скачан: 595 раз
Статус: Проверен
Зарегистрирован на трекере: 2019-05-16 08:31
Скачать торрент


Поддержи раздачу — поставь лайк:
BLIZNEC W
2019-05-16 08:31
Интересного и приятного просмотра!!!

Мои раздачи
slavon35
2019-05-16 09:17
Смотрел очень давно. Норм.
Писать комментарии на нашем торрент-трекере могут только зарегистрированные пользователи.
Зарегистрируйтесь или авторизируйтесь на сайте.