»
»

Скачать фильм Опосредованная война / Jingi naki tatakai: Dairi senso (Киндзи Фукасаку) [1973, боевик, драма, BDRemux 1080p] AVO - торрент

Нажмите на синюю кнопку ниже, чтобы скачать фильм бесплатно через торрент. Фильм доступен на нашем торрент-трекере бесплатно, без регистрации и смс.

Статистика раздачи
0 [ 0 b/s ] ↑ 26.7 GB ↓ 0 [ 0 b/s ]
Автор Сообщение
rainbow.n
2019-05-16 09:21
Опосредованная война / Jingi naki tatakai: Dairi senso
Опосредованная война / Jingi naki tatakai: Dairi senso Перевод: Авторский (одноголосый)
Cубтитры: русские, английские
Формат: BDRemux, MKV, H.264, DTS-HD (MA)
Страна: Япония
Режиссер: Киндзи Фукасаку
Жанр: боевик, драма
Продолжительность: 01:42:31
Год выпуска: 1973

В ролях: Бунта Сугавара, Акира Кобаяси, Цунэхико Ватасэ, Синго Ямасиро, Рэйко Икэ, Хидеко Накамура, Нобуо Канэко, Тосиэ Кимура, Микио Нарита

Описание: Преемник семьи Мураока, самой могущественной семьи якудза в Хиросиме, жестоко убит средь бела дня на центральной улице города. В постепенно развивающейся борьбе за место преемника проныра Утимото гнусно ставит палки в колёса боссу Ямамори, который хочет стать новым боссом семьи Мураока…

7,5/10 929

Видео: 1920x1080p (16:9), 23,976 fps, AVC MPEG-4 (x264), High@L4.1 ~ 35,0 Mbit/s, 0.704 bit/pixel

Аудио#1: Русский: 48 kHz, DTS-HD Master Audio, 1 ch, ~ 1113 kbps, 24-bit (DTS Core: 5.1 ch, 48 kHz, 768 kbps, 24-bit) [Авторский (одноголосый) Ю. Сербин]
Аудио#2: Японский: 48 kHz, DTS-HD Master Audio, 1 ch, ~ 1102 kbps, 24-bit (DTS Core: 5.1 ch, 48 kHz, 768 kbps, 24-bit) [Оригинал]
MI
Общее
Уникальный идентификатор : 200533823137734014309747045942241845103 (0x96DD68D3F73F5610BCB5F05050ACDF6F)
Полное имя : D:\Jingi.naki.tatakai.Dairi.senso.1973.BDRemux.mkv
Формат : Matroska
Версия формата : Version 4 / Version 2
Размер файла : 26,7 Гбайт
Продолжительность : 1 ч. 42 м.
Режим общего битрейта : Переменный
Общий поток : 37,2 Мбит/сек
Название фильма : Jingi naki tatakai: Dairi sensô (1973)
Дата кодирования : UTC 2017-07-13 12:29:22
Программа кодирования : mkvmerge v12.0.0 ('Trust / Lust') 64bit
Библиотека кодирования : libebml v1.3.4 + libmatroska v1.4.5

Видео
Идентификатор : 1
Формат : AVC
Формат/Информация : Advanced Video Codec
Профиль формата : High@L4.1
Параметр CABAC формата : Да
Параметр RefFrames формата : 3 кадра
Идентификатор кодека : V_MPEG4/ISO/AVC
Продолжительность : 1 ч. 42 м.
Вид битрейта : Переменный
Битрейт : 35,0 Мбит/сек
Максимальный битрейт : 38,0 Мбит/сек
Ширина : 1920 пикселей
Высота : 1080 пикселей
Соотношение сторон : 16:9
Режим частоты кадров : Постоянный
Частота кадров : 23,976 (24000/1001) кадра/сек
Цветовое пространство : YUV
Субдискретизация насыщенности : 4:2:0
Битовая глубина : 8 бит
Тип развёртки : Прогрессивная
Бит/(Пиксели*Кадры) : 0.704
Размер потока : 25,0 Гбайт (94%)
Заголовок : Jingi naki tatakai: Dairi sensô (1973)
Библиотека кодирования : x264 core 128 r2216 198a7ea
Настройки программы : cabac=1 / ref=4 / deblock=0:-1:-1 / analyse=0x3:0x113 / me=umh / subme=8 / psy=1 / psy_rd=1.00:0.15 / mixed_ref=1 / me_range=16 / chroma_me=1 / trellis=1 / 8x8dct=1 / cqm=0 / deadzone=21,11 / fast_pskip=1 / chroma_qp_offset=-3 / threads=12 / lookahead_threads=2 / sliced_threads=0 / slices=4 / nr=0 / decimate=1 / interlaced=0 / bluray_compat=1 / constrained_intra=0 / bframes=3 / b_pyramid=1 / b_adapt=2 / b_bias=0 / direct=3 / weightb=1 / open_gop=1 / weightp=1 / keyint=24 / keyint_min=1 / scenecut=40 / intra_refresh=0 / rc_lookahead=24 / rc=2pass / mbtree=1 / bitrate=35000 / ratetol=1.0 / qcomp=0.00 / qpmin=0 / qpmax=69 / qpstep=4 / cplxblur=20.0 / qblur=0.5 / vbv_maxrate=38000 / vbv_bufsize=28500 / nal_hrd=vbr / ip_ratio=1.40 / aq=1:0.80
Язык : Japanese
Default : Да
Forced : Нет
Цветовой диапазон : Limited
Основные цвета : BT.709
Характеристики трансфера : BT.709
Коэффициенты матрицы : BT.709

Аудио #1
Идентификатор : 2
Формат : DTS
Формат/Информация : Digital Theater Systems
Профиль формата : MA / Core
Режим : 16
Параметр Endianness формата : Big
Идентификатор кодека : A_DTS
Продолжительность : 1 ч. 42 м.
Вид битрейта : Переменный / Постоянный
Битрейт : 1113 Кбит/сек / 768 Кбит/сек
Каналы : 1 канал
Расположение каналов : Front: C
Частота : 48,0 КГц
Частота кадров : 93,750 кадра/сек (512 SPF)
Битовая глубина : 24 бит
Метод сжатия : Без потерь / Lossy
Размер потока : 816 Мбайт (3%)
Заголовок : AVO Юрий Сербин
Язык : Russian
Default : Да
Forced : Нет

Аудио #2
Идентификатор : 3
Формат : DTS
Формат/Информация : Digital Theater Systems
Профиль формата : MA / Core
Режим : 16
Параметр Endianness формата : Big
Идентификатор кодека : A_DTS
Продолжительность : 1 ч. 42 м.
Вид битрейта : Переменный / Постоянный
Битрейт : 1102 Кбит/сек / 768 Кбит/сек
Каналы : 1 канал
Расположение каналов : Front: C
Частота : 48,0 КГц
Частота кадров : 93,750 кадра/сек (512 SPF)
Битовая глубина : 24 бит
Метод сжатия : Без потерь / Lossy
Размер потока : 808 Мбайт (3%)
Заголовок : Original
Язык : Japanese
Default : Нет
Forced : Нет

Текст #1
Идентификатор : 4
Формат : PGS
Идентификатор кодека : S_HDMV/PGS
Идентификатор кодека/Информация : Picture based subtitle format used on BDs/HD-DVDs
Продолжительность : 1 ч. 42 м.
Битрейт : 30,7 Кбит/сек
ElementCount : 2654
Размер потока : 22,5 Мбайт (0%)
Заголовок : Full
Язык : Russian
Default : Нет
Forced : Нет

Текст #2
Идентификатор : 5
Формат : PGS
Идентификатор кодека : S_HDMV/PGS
Идентификатор кодека/Информация : Picture based subtitle format used on BDs/HD-DVDs
Продолжительность : 1 ч. 42 м.
Битрейт : 36,5 Кбит/сек
ElementCount : 2648
Размер потока : 26,7 Мбайт (0%)
Заголовок : Full
Язык : English
Default : Нет
Forced : Нет

Меню
00:00:00.000 : en:Chapter 01
00:07:23.067 : en:Chapter 02
00:16:39.248 : en:Chapter 03
00:24:49.654 : en:Chapter 04
00:33:57.118 : en:Chapter 05
00:41:22.688 : en:Chapter 06
00:50:30.235 : en:Chapter 07
01:01:12.293 : en:Chapter 08
01:08:06.665 : en:Chapter 09
01:16:55.277 : en:Chapter 10
01:28:11.411 : en:Chapter 11
01:34:18.402 : en:Chapter 12


Информация о торренте:
Размер содержимого: 26.7 GB
Скачан: 187 раз
Статус: Проверен
Зарегистрирован на трекере: 2019-05-16 08:21
Скачать торрент


Поддержи раздачу — поставь лайк:
Писать комментарии на нашем торрент-трекере могут только зарегистрированные пользователи.
Зарегистрируйтесь или авторизируйтесь на сайте.