»
»

Скачать мультфильм Ши-Ра и непобедимые принцессы 1 сезон 1-13 серии из 13 / She-Ra and the Princesses of Power (Джен Беннетт, Лайан Хьюз, Стефани Стайн) [2018, фантастика, фэнтези, боевик, приключения, семейный, WEBRip] MVO - торрент

Нажмите на синюю кнопку, чтобы скачать мультфильм через торрент бесплатно. Мультфильм доступен на нашем торрент-трекере бесплатно, без регистрации и смс.

Статистика раздачи
0 [ 0 b/s ] ↑ 3.7 GB ↓ 0 [ 0 b/s ]
Автор Сообщение
NewSation
2019-05-11 00:38
Тука и Берти / Tuca & Bertie
Ши-Ра и непобедимые принцессы 1 сезон 1-13 серии из 13 / She-Ra and the Princesses of Power
Перевод: Профессиональный (многоголосый, закадровый), [NewStation] cубтитры: нет
Формат: WEBRip, avi, xvid, mp3
Страна: США
Режиссер: Джен Беннетт, Лайан Хьюз, Стефани Стайн
Жанр: фантастика, фэнтези, боевик, приключения, семейный
Всего серий: 13
Продолжительность: 13 x 00:24:00
Год выпуска: 2018

В ролях: Эйми Карреро, Джо Амато, Лорен Эш, Кристал Джой Браун, Энтони Дель Рио, Джордан Фишер, Карен Фукухара, Кестон Джон, Мэрит Лейтон
Описание: Действие происходит в далёкой вселенной, на планете Этерия. 16-ти летняя сирота Адора является одним из лучших солдат орды, возглавляемой тираном Хордаком. Благодаря своему таланту, Адора выступала главным кандидатом на пост капитана сил Орды. Её заданием стало уничтожение повстанцев «великого восстания» во главе с «принцессами». Во время исполнения миссии, Адора находит волшебный меч, который превращает её в могущественного воина — Ши-Ру. Она встречает принцесс великого восстания, которые рассказывают ей пророчество, что однажды Этерию спасёт «великая героиня».

[imdb=http://www.imdb.com/title/tt7745956/]



Видео: 700x400 (16:9), 23,976 кадров/сек, XviD,~1343 kbps, 0.154 bit/pixel
Аудио #1 48 kHz, MPEG Layer 3, 2 ch, ~128 kbps avg | Русский (NewStation)
Аудио #2 48 kHz, MPEG Layer 3, 2 ch, ~128 kbps avg | Английский

MediaInfo
Общее
Полное имя : F:\NewStation\She-Ra.And.The.Princesses.Of.Power.S01.WEBRip.NewStation\She-Ra.And.The.Princesses.Of.Power.S01E01.WEBRip.NewStation.avi
Формат : AVI
Формат/Информация : Audio Video Interleave
Размер файла : 295 Мбайт
Продолжительность : 24 м. 14 с.
Общий поток : 1704 Кбит/сек
Программа кодирования : VirtualDubMod 1.5.10.2 (build 2540/release)
Библиотека кодирования : VirtualDubMod build 2540/release

Видео
Идентификатор : 0
Формат : MPEG-4 Visual
Профиль формата : Simple@L5
Параметр BVOP формата : Нет
Параметр QPel формата : Нет
Параметр GMC формата : Без точки перехода
Параметр матрицы формата : Default (H.263)
Идентификатор кодека : XVID
Идентификатор кодека/Подсказка : XviD
Продолжительность : 24 м. 14 с.
Битрейт : 1434 Кбит/сек
Ширина : 720 пикселей
Высота : 400 пикселей
Соотношение сторон : 16:9
Частота кадров : 23,976 (24000/1001) кадра/сек
Цветовое пространство : YUV
Субдискретизация насыщенности : 4:2:0
Битовая глубина : 8 бит
Тип развёртки : Прогрессивная
Метод сжатия : С потерями
Бит/(Пиксели*Кадры) : 0.208
Размер потока : 249 Мбайт (84%)
Библиотека кодирования : XviD 67

Аудио #1
Идентификатор : 1
Формат : MPEG Audio
Версия формата : Version 1
Профиль формата : Layer 3
Настройки формата : Joint stereo / MS Stereo
Идентификатор кодека : 55
Идентификатор кодека/Подсказка : MP3
Продолжительность : 24 м. 14 с.
Вид битрейта : Постоянный
Битрейт : 128 Кбит/сек
Каналы : 2 канала
Частота : 48,0 КГц
Метод сжатия : С потерями
Размер потока : 22,2 Мбайт (8%)
Выравнивание : Соединение по промежуткам
Продолжительность промежутка : 42 мс. (1,00 видеокадр)
Время предзагрузки промежутка : 504 мс.

Аудио #2
Идентификатор : 2
Формат : MPEG Audio
Версия формата : Version 1
Профиль формата : Layer 3
Идентификатор кодека : 55
Идентификатор кодека/Подсказка : MP3
Продолжительность : 24 м. 14 с.
Вид битрейта : Постоянный
Битрейт : 128 Кбит/сек
Каналы : 2 канала
Частота : 48,0 КГц
Метод сжатия : С потерями
Размер потока : 22,2 Мбайт (8%)
Выравнивание : Разделение по промежуткам
Продолжительность промежутка : 42 мс. (1,00 видеокадр)
Время предзагрузки промежутка : 500 мс.
Библиотека кодирования : LAMELAME_MAJOR_VERSI


Информация о торренте:
Размер содержимого: 3.7 GB
Скачан: 745 раз
Статус: Проверен
Зарегистрирован на трекере: 2019-06-01 15:41
Скачать торрент


Поддержи раздачу — поставь лайк:
Писать комментарии на нашем торрент-трекере могут только зарегистрированные пользователи.
Зарегистрируйтесь или авторизируйтесь на сайте.