»
»

Скачать сериал Я - зомби, 5 сезон 1-13 серия из 13 / iZombie [IdeaFilm] (Майкл Филдс, Джейсон Блум, Дэн Этеридж) [2019, ужасы, фантастика, драма, криминал, WEBRip 1080p, P] - торрент

Бесплатные торренты всегда на нашем сайте и в хорошем качестве! Сериал доступен на нашем торрент-трекере бесплатно, без регистрации и смс.

Статистика раздачи
0 [ 0 b/s ] ↑ 29.6 GB ↓ 0 [ 0 b/s ]
Автор Сообщение
IdeaFilm
2019-05-08 14:39
Я - зомби / iZombie
Я - зомби, 5 сезон 1-13 серия из 13 / iZombie [IdeaFilm] Перевод: Профессиональный (многоголосый, закадровый) IdeaFilm
Субтитры: отсутствуют
Формат: WEBRip, MKV, h.264, AC3
Страна: США
Режиссер: Майкл Филдс, Джейсон Блум, Дэн Этеридж
Жанр: ужасы, фантастика, драма, криминал
Всего серий: 13
Продолжительность: 13х ~00:45:00
Год выпуска: 2019

В ролях: Роуз МакИвер, Малкольм Гудвин, Рахул Коли, Роберт Бакли, Дэвид Андерс, Элисон Мичалка, Брайс Ходжсон, Джессика Хэрмон, Джон Эммет Трэйси, Эдди Джемисон, Даран Норрис, Эми Анеке, Дженнифер Ирвин, Билл Уайз

Описание: В центре сюжета — студентка медицинского факультета Оливия «Лив» Мур, для которой последствия одной из вечеринок стали переломным моментом в жизни, превратившим её в зомби. Жизнерадостная, активная и пышущая здоровьем раньше, теперь Лив похожа на представителя готов — с бледной кожей, тёмными кругами вокруг глаз и почти белыми волосами. Она устраивается на работу в офис коронера, доктора Рави Чакрабарти, чтобы иметь доступ к мозгам, которые ей приходиться есть, чтобы поддерживать свою человеческую сущность. Однако с каждым съеденным ею мозгом она наследует воспоминания трупа. С помощью босса доктора Чакрабарти, узнавшего её секрет, и детектива полиции Клайва Бабино Лив способна разгадывать убийства тех людей, чей мозг она съела.

Рейтинг: [imdb=http://www.imdb.com/title/tt3501584/]

Видео: 1920x1080 (16/9), 23,976 fps, AVC (х264), Main@L4.1, ~6902 kbps avg, 0.139 bit/pixel
Аудио #1 Rus: :48 kHz, AC3 Dolby Digital, 3/2 (L,C,R,l,r) + LFE ch, ~384 kbps
Аудио #2 Eng: :48 kHz, AC3 Dolby Digital, 3/2 (L,C,R,l,r) + LFE ch, ~384 kbps

Внимание, присутствует реклама!
MediaInfo

Общее
Уникальный идентификатор : 128376221648344452780956170922290965608 (0x60945C66B1A0D10D086F188736E5EC68)
Полное имя : F:\IDEAFILM\iZombie.S05.WEBRip.1080p\iZombie.S05E01.WEBRip.1080p.IdeaFilm.mkv
Формат : Matroska
Версия формата : Version 4
Размер файла : 2,31 Гбайт
Продолжительность : 43 м. 3 с.
Общий поток : 7666 Кбит/сек
Дата кодирования : UTC 2019-05-08 08:43:04
Программа кодирования : mkvmerge v25.0.0 ('Prog Noir') 64-bit
Библиотека кодирования : libebml v1.3.6 + libmatroska v1.4.9

Видео
Идентификатор : 1
Формат : AVC
Формат/Информация : Advanced Video Codec
Профиль формата : Main@L4.1
Настройки формата : CABAC / 4 Ref Frames
Параметр CABAC формата : Да
Параметр RefFrames формата : 4 кадра
Идентификатор кодека : V_MPEG4/ISO/AVC
Продолжительность : 43 м. 3 с.
Битрейт : 6902 Кбит/сек
Ширина : 1920 пикселей
Высота : 1080 пикселей
Соотношение сторон : 16:9
Режим частоты кадров : Постоянный
Частота кадров : 23,976 (24000/1001) кадра/сек
Цветовое пространство : YUV
Субдискретизация насыщенности : 4:2:0
Битовая глубина : 8 бит
Тип развёртки : Прогрессивная
Бит/(Пиксели*Кадры) : 0.139
Размер потока : 2,08 Гбайт (90%)
Язык : English
Default : Да
Forced : Нет
Цветовой диапазон : Limited
Основные цвета : BT.709
Характеристики трансфера : BT.709
Коэффициенты матрицы : BT.709

Аудио #1
Идентификатор : 2
Формат : AC-3
Формат/Информация : Audio Coding 3
Коммерческое название : Dolby Digital
Идентификатор кодека : A_AC3
Продолжительность : 43 м. 3 с.
Вид битрейта : Постоянный
Битрейт : 384 Кбит/сек
Каналы : 6 каналов
Channel layout : L R C LFE Ls Rs
Частота : 48,0 КГц
Частота кадров : 31,250 кадров/сек (1536 SPF)
Битовая глубина : 16 бит
Метод сжатия : С потерями
Размер потока : 118 Мбайт (5%)
Заголовок : IdeaFilm
Язык : Russian
ServiceKind/String : Complete Main
Default : Да
Forced : Нет

Аудио #2
Идентификатор : 3
Формат : AC-3
Формат/Информация : Audio Coding 3
Идентификатор кодека : A_AC3
Продолжительность : 42 м. 22 с.
Битрейт : 384 Кбит/сек
Каналы : 6 каналов
Частота : 48,0 КГц
Частота кадров : 31,250 кадров/сек (1536 SPF)
Метод сжатия : С потерями
Размер потока : 116 Мбайт (5%)
Язык : English
Default : Нет
Forced : Нет

Информация о торренте:
Размер содержимого: 29.6 GB
Скачан: 1435 раз
Статус: Проверен
Зарегистрирован на трекере: 2019-08-04 01:20
Скачать торрент


Поддержи раздачу — поставь лайк:
Писать комментарии на нашем торрент-трекере могут только зарегистрированные пользователи.
Зарегистрируйтесь или авторизируйтесь на сайте.