»
»

Скачать сериал Воин, 1 сезон 1-10 серии из 10 / Warrior [IdeaFilm] (Лони Перистер, Лин Одинг, Дэвид Петрарка, Асаф Бернштейн, Кевин Танчароэн) [2019, боевик, драма, история, WEB-DLRip 1080p, Р] - торрент

Скачать через торрент сериал вы можете, нажав на синюю кнопку. Сериал доступен на нашем торрент-трекере бесплатно, без регистрации и смс.

Статистика раздачи
0 [ 0 b/s ] ↑ 27.3 GB ↓ 0 [ 0 b/s ]
Автор Сообщение
D4IVER
2019-04-08 23:50
Воин / Warrior
Воин, 1 сезон 1-10 серии из 10 / Warrior [IdeaFilm]
Перевод: Профессиональный (многоголосый, закадровый) IdeaFilm
Субтитры: отсутствуют
Формат: WEB-DLRip 1080p, MKV, H.264, AC3
Страна: США
Режиссер: Лони Перистер, Лин Одинг, Дэвид Петрарка, Асаф Бернштейн, Кевин Танчароэн
Жанр: Боевик, драма, история
Всего серий: 10
Продолжительность: 10 x ~ 01:00:00
Год выпуска: 2019

В ролях: Джейсон Дж. Тобин, Эндрю Кодзи, Оливия Ченг, Киран Бью, Дайян Доан, Дин Джаггер III, Лэнгли Кирквуд, Перри Юнг, Райан Крюгер, Рич Тинг

Описание: Сериал основан на оригинальной идее Брюса Ли. В 1890-х годах город Сан-Франциско страдал от коррупции и мафии. В китайском квартале Сан-Франциско междоусобные войны достигли особого размаха. В это неспокойное время в город из Китая прибывает молодой мастер восточных единоборств А Сам (Ah Sahm). Молодой человек тут же оказывается втянутым в кровавые разборки между двумя опасными соперничающими друг с другом группировками Тонг в Чайнатауне. А Сам подвергает себя смертельной опасности, после того как план мести, который он готовил не один год, становится известен его врагам.

[imdb=http://www.imdb.com/title/tt5743796/]

Видео: 1920x1080 (16:9), 23.976 fps, AVC (х264), Main@L4.1, ~6862 Kbps avg, 0.138 bit/pixel
Аудио #1 Rus: 48 kHz, AC3 Dolby Digital, 3/2 (L,C,R,l,r) + LFE ch, ~384 kbps
Аудио #2 Eng: 48 kHz, AC3 Dolby Digital, 3/2 (L,C,R,l,r) + LFE ch, ~640 kbps

Внимание, присутствует реклама!

MediaInfo

Video
ID : 1
Format : AVC
Format/Info : Advanced Video Codec
Format profile : Main@L4.1
Format settings : CABAC / 4 Ref Frames
Format settings, CABAC : Yes
Format settings, ReFrames : 4 frames
Codec ID : V_MPEG4/ISO/AVC
Duration : 1 h 1 min
Bit rate : 6 862 kb/s
Width : 1 920 pixels
Height : 1 080 pixels
Display aspect ratio : 16:9
Frame rate mode : Constant
Frame rate : 23.976 (24000/1001) FPS
Color space : YUV
Chroma subsampling : 4:2:0
Bit depth : 8 bits
Scan type : Progressive
Bits/(Pixel*Frame) : 0.138
Stream size : 2.95 GiB (87%)
Language : English
Default : Yes
Forced : No
Color range : Limited
Color primaries : BT.709
Transfer characteristics : BT.709
Matrix coefficients : BT.709

Audio #1
ID : 2
Format : AC-3
Format/Info : Audio Coding 3
Commercial name : Dolby Digital
Codec ID : A_AC3
Duration : 1 h 1 min
Bit rate mode : Constant
Bit rate : 384 kb/s
Channel(s) : 6 channels
Channel positions : Front: L C R, Side: L R, LFE
Sampling rate : 48.0 kHz
Frame rate : 31.250 FPS (1536 SPF)
Bit depth : 16 bits
Compression mode : Lossy
Stream size : 169 MiB (5%)
Title : IDEAFILM
Language : Russian
Service kind : Complete Main
Default : Yes
Forced : No

Audio #2
ID : 3
Format : AC-3
Format/Info : Audio Coding 3
Codec ID : A_AC3
Duration : 1 h 0 min
Bit rate : 640 kb/s
Channel(s) : 6 channels
Sampling rate : 48.0 kHz
Frame rate : 31.250 FPS (1536 SPF)
Compression mode : Lossy
Stream size : 278 MiB (8%)
Language : English
Default : No
Forced : No

Информация о торренте:
Размер содержимого: 27.3 GB
Скачан: 1182 раза
Статус: Проверен
Зарегистрирован на трекере: 2019-06-11 00:10
Скачать торрент


Поддержи раздачу — поставь лайк:
Kleopatra772177.
2019-05-01 01:54
Писать комментарии на нашем торрент-трекере могут только зарегистрированные пользователи.
Зарегистрируйтесь или авторизируйтесь на сайте.