»
»

Скачать сериал Девственница Джейн, 5 сезон 1-11 серии из 19 / Jane the Virgin [IdeaFilm] (Брэд Силберлинг, Мелани Майрон, Зетна Фуэнтес) [2019, драма, WEBRip 1080p, P] - торрент

Скачать торрент сериал можно, нажав на синюю кнопку ниже. Сериал доступен на нашем торрент-трекере бесплатно, без регистрации и смс.

Статистика раздачи
0 [ 0 b/s ] ↑ 22.0 GB ↓ 0 [ 0 b/s ]
Автор Сообщение
IdeaFilm
2019-03-29 22:27
Девственница Джейн / Jane the Virgin
Девственница Джейн, 5 сезон 1-11 серии из 19 / Jane the Virgin [IdeaFilm] Перевод: Профессиональный (многоголосый, закадровый) IdeaFilm
Субтитры: Отсутствуют
Формат: WEBRip, MKV, h.264, AC3
Страна: США
Режиссер: Брэд Силберлинг, Мелани Майрон, Зетна Фуэнтес
Жанр: драма
Всего серий: 19
Продолжительность: 11х ~ 00:40:00
Год выпуска: 2019

В ролях: Джина Родригес, Андреа Наведо, Джастин Бальдони, Яэль Гробглас, Хайме Камил, Ивонн Колл, Бретт Дир, Яра Мартинес, Шелли Бхалла, Альфонсо Дилука

Описание: Джейн выросла под влиянием строгой латиноамериканской бабушки, которая с ранних лет учила внучку скромности и воздержанию. Даже став красивой молодой женщиной, она оставалась целомудренной и пресекала все неприличные поползновения своего жениха. Но обычный поход к гинекологу изменил всю жизнь Джейн. Она стала жертвой случайного искусственного оплодотворения! Мир перевернулся с ног на голову, и теперь ей предстоит принять сложное решение, разобраться с шокированной родней, познакомиться с биологическим отцом малыша и сделать еще много такого, о чем две недели назад она не могла и помыслить.

[imdb=http://www.imdb.com/title/tt3566726/]

Видео: 1920x1080 (16/9), 23,976 fps, AVC (х264), Main@L4.1, ~6845 kbps avg, 0.138 bit/pixel
Аудио #1 Rus: :48 kHz, AC3 Dolby Digital, 3/2 (L,C,R,l,r) + LFE ch, ~384 kbps
Аудио #2 Eng: :48 kHz, AC3 Dolby Digital, 3/2 (L,C,R,l,r) + LFE ch, ~384 kbps

Внимание, присутствует реклама!

Внимание! Раздача ведётся путём добавления новых серий

Внимание! Раздача ведётся путём добавления новых серий; при каждом добавлении создаётся новый торрент. Чтобы начать докачку новой серии, пользователям необходимо сделать следующее:
(1) остановить скачивание,
(2) удалить старый торрент у себя из клиента (старые серии удалять не надо),
(3) скачать новый торрент и запустить его у себя в клиенте вместо старого, при этом указать клиенту путь в старую папку куда и должно происходить скачивание новых серий.

Ваш клиент при этом должен произвести хеширование (проверку) старой папки (если не производит сам - помогите ему сделать это), и будет докачивать только те серии которых у вас ещё нет. Старые серии при этом не удаляются, а продолжают раздаваться!

Eсли вы уже удалили старые серии, то предотвратить повторную закачку старых серий можно, отжав галочку в соответствующих местах при запуске нового торрента. По возможности, желательно не удалять старые серии как можно дольше, чтобы релизёр не столько продолжал раздавать старые серии, а смог сконцентрироваться на новых.
MediaInfo

Общее
Уникальный идентификатор : 138623895872712668754275465363531560552 (0x6849FDBFBC0D971B0B690A079B40F668)
Полное имя : F:\IDEAFILM\Jane.The.Virgin.S05.WEBRip.1080p\Jane.The.Virgin.S05E01.WEBRip.1080p.IdeaFilm.mkv
Формат : Matroska
Версия формата : Version 4
Размер файла : 2,34 Гбайт
Продолжительность : 44 м. 6 с.
Общий поток : 7609 Кбит/сек
Дата кодирования : UTC 2019-03-29 15:40:48
Программа кодирования : mkvmerge v25.0.0 ('Prog Noir') 64-bit
Библиотека кодирования : libebml v1.3.6 + libmatroska v1.4.9

Видео
Идентификатор : 1
Формат : AVC
Формат/Информация : Advanced Video Codec
Профиль формата : Main@L4.1
Настройки формата : CABAC / 4 Ref Frames
Параметр CABAC формата : Да
Параметр RefFrames формата : 4 кадра
Идентификатор кодека : V_MPEG4/ISO/AVC
Продолжительность : 44 м. 6 с.
Битрейт : 6845 Кбит/сек
Ширина : 1920 пикселей
Высота : 1080 пикселей
Соотношение сторон : 16:9
Режим частоты кадров : Постоянный
Частота кадров : 23,976 (24000/1001) кадра/сек
Цветовое пространство : YUV
Субдискретизация насыщенности : 4:2:0
Битовая глубина : 8 бит
Тип развёртки : Прогрессивная
Бит/(Пиксели*Кадры) : 0.138
Размер потока : 2,11 Гбайт (90%)
Язык : English
Default : Да
Forced : Нет
Цветовой диапазон : Limited
Основные цвета : BT.709
Характеристики трансфера : BT.709
Коэффициенты матрицы : BT.709

Аудио #1
Идентификатор : 2
Формат : AC-3
Формат/Информация : Audio Coding 3
Коммерческое название : Dolby Digital
Идентификатор кодека : A_AC3
Продолжительность : 44 м. 6 с.
Вид битрейта : Постоянный
Битрейт : 384 Кбит/сек
Каналы : 6 каналов
Channel layout : L R C LFE Ls Rs
Частота : 48,0 КГц
Частота кадров : 31,250 кадров/сек (1536 SPF)
Битовая глубина : 16 бит
Метод сжатия : С потерями
Размер потока : 121 Мбайт (5%)
Заголовок : IdeaFilm
Язык : Russian
ServiceKind/String : Complete Main
Default : Да
Forced : Нет

Аудио #2
Идентификатор : 3
Формат : AC-3
Формат/Информация : Audio Coding 3
Идентификатор кодека : A_AC3
Продолжительность : 43 м. 26 с.
Битрейт : 384 Кбит/сек
Каналы : 6 каналов
Частота : 48,0 КГц
Частота кадров : 31,250 кадров/сек (1536 SPF)
Метод сжатия : С потерями
Размер потока : 119 Мбайт (5%)
Язык : English
Default : Нет
Forced : Нет

Информация о торренте:
Размер содержимого: 22.0 GB
Скачан: 755 раз
Статус: Обновляемая раздача
Зарегистрирован на трекере: 2019-06-12 23:21
Скачать торрент


Поддержи раздачу — поставь лайк:
E-mail:
* Это обновляемая раздача и мы можем вас информировать об обновлении торрента в ней.

Писать комментарии на нашем торрент-трекере могут только зарегистрированные пользователи.
Зарегистрируйтесь или авторизируйтесь на сайте.