»
»

Скачать сериал Девственница Джейн, 5 сезон 1-18 серии из 19 / Jane the Virgin [IdeaFilm] (Брэд Силберлинг, Мелани Майрон, Джина Ламар) [2019, комедия, драма, WEBRip 720p, P] - торрент

Нажмите синюю кнопку, чтобы cкачать бесплатно через торрент сериал. Сериал доступен на нашем торрент-трекере бесплатно, без регистрации и смс.

Статистика раздачи
0 [ 0 b/s ] ↑ 29.4 GB ↓ 0 [ 0 b/s ]
Автор Сообщение
IdeaFilm
2019-03-29 22:27
Девственница Джейн / Jane the Virgin
Девственница Джейн, 5 сезон 1-18 серии из 19 / Jane the Virgin [IdeaFilm] Перевод: Профессиональный (многоголосый, закадровый) IdeaFilm
Субтитры: Отсутствуют
Формат: WEBRip, MKV, h.264, AC3
Страна: США
Режиссер: Брэд Силберлинг, Мелани Майрон, Джина Ламар
Жанр: комедия, драма
Всего серий: 19
Продолжительность: 18х ~ 00:40:00
Год выпуска: 2019

В ролях: Джина Родригес, Андреа Наведо, Джастин Бальдони, Яэль Гробглас, Ивонн Колл, Хайме Камил, Энтони Мендес, Бретт Дир, Яра Мартинес, Шелли Бхалла, Альфонсо Дилука, Розарио Доусон

Описание: Джейн выросла под влиянием строгой латиноамериканской бабушки, которая с ранних лет учила внучку скромности и воздержанию. Даже став красивой молодой женщиной, она оставалась целомудренной и пресекала все неприличные поползновения своего жениха. Но обычный поход к гинекологу изменил всю жизнь Джейн. Она стала жертвой случайного искусственного оплодотворения! Мир перевернулся с ног на голову, и теперь ей предстоит принять сложное решение, разобраться с шокированной родней, познакомиться с биологическим отцом малыша и сделать еще много такого, о чем две недели назад она не могла и помыслить.

[imdb=http://www.imdb.com/title/tt3566726/]

Видео: 1280x720 (16/9), 23,976 fps, AVC (х264), High@L3.1, ~4500 kbps avg, 0.204 bit/pixel
Аудио #1 Rus: :48 kHz, AC3 Dolby Digital, 3/2 (L,C,R,l,r) + LFE ch, ~384 kbps
Аудио #2 Eng: :48 kHz, AC3 Dolby Digital, 3/2 (L,C,R,l,r) + LFE ch, ~384 kbps

Внимание, присутствует реклама!

MediaInfo

Общее
Уникальный идентификатор : 206180815581189207463894358516536404060 (0x9B1CFB0D18EAEBDE5CD71C93F63B685C)
Полное имя : F:\IDEAFILM\Jane.The.Virgin.S05.WEBRip.720p\Jane.The.Virgin.S05E01.WEBRip.720p.IdeaFilm.mkv
Формат : Matroska
Версия формата : Version 4
Размер файла : 1,61 Гбайт
Продолжительность : 44 м. 6 с.
Общий поток : 5211 Кбит/сек
Дата кодирования : UTC 2019-03-29 15:46:42
Программа кодирования : mkvmerge v25.0.0 ('Prog Noir') 64-bit
Библиотека кодирования : libebml v1.3.6 + libmatroska v1.4.9

Видео
Идентификатор : 1
Формат : AVC
Формат/Информация : Advanced Video Codec
Профиль формата : High@L3.1
Настройки формата : CABAC / 4 Ref Frames
Параметр CABAC формата : Да
Параметр RefFrames формата : 4 кадра
Идентификатор кодека : V_MPEG4/ISO/AVC
Продолжительность : 44 м. 6 с.
Битрейт : 4500 Кбит/сек
Ширина : 1280 пикселей
Высота : 720 пикселей
Соотношение сторон : 16:9
Режим частоты кадров : Постоянный
Частота кадров : 23,976 (24000/1001) кадра/сек
Цветовое пространство : YUV
Субдискретизация насыщенности : 4:2:0
Битовая глубина : 8 бит
Тип развёртки : Прогрессивная
Бит/(Пиксели*Кадры) : 0.204
Размер потока : 1,37 Гбайт (85%)
Библиотека кодирования : x264 core 130 r2273 b3065e6
Настройки программы : cabac=1 / ref=3 / deblock=1:0:0 / analyse=0x3:0x113 / me=hex / subme=2 / psy=1 / psy_rd=1.00:0.00 / mixed_ref=1 / me_range=16 / chroma_me=1 / trellis=1 / 8x8dct=1 / cqm=0 / deadzone=21,11 / fast_pskip=1 / chroma_qp_offset=0 / threads=24 / lookahead_threads=5 / sliced_threads=0 / nr=0 / decimate=1 / interlaced=0 / bluray_compat=0 / constrained_intra=0 / bframes=2 / b_pyramid=2 / b_adapt=1 / b_bias=0 / direct=1 / weightb=1 / open_gop=0 / weightp=2 / keyint=250 / keyint_min=23 / scenecut=40 / intra_refresh=0 / rc_lookahead=40 / rc=abr / mbtree=1 / bitrate=4500 / ratetol=1.0 / qcomp=0.60 / qpmin=0 / qpmax=69 / qpstep=4 / ip_ratio=1.40 / aq=1:1.00
Default : Да
Forced : Нет

Аудио #1
Идентификатор : 2
Формат : AC-3
Формат/Информация : Audio Coding 3
Коммерческое название : Dolby Digital
Идентификатор кодека : A_AC3
Продолжительность : 44 м. 6 с.
Вид битрейта : Постоянный
Битрейт : 384 Кбит/сек
Каналы : 6 каналов
Channel layout : L R C LFE Ls Rs
Частота : 48,0 КГц
Частота кадров : 31,250 кадров/сек (1536 SPF)
Битовая глубина : 16 бит
Метод сжатия : С потерями
Размер потока : 121 Мбайт (7%)
Заголовок : IdeaFilm
Язык : Russian
ServiceKind/String : Complete Main
Default : Да
Forced : Нет

Аудио #2
Идентификатор : 3
Формат : AC-3
Формат/Информация : Audio Coding 3
Идентификатор кодека : A_AC3
Продолжительность : 43 м. 26 с.
Битрейт : 384 Кбит/сек
Каналы : 6 каналов
Частота : 48,0 КГц
Частота кадров : 31,250 кадров/сек (1536 SPF)
Метод сжатия : С потерями
Размер потока : 119 Мбайт (7%)
Язык : English
Default : Нет
Forced : Нет

Информация о торренте:
Размер содержимого: 29.4 GB
Скачан: 1418 раз
Статус: Некондиционная раздача
Зарегистрирован на трекере: 2019-08-03 03:39
Скачать торрент


Поддержи раздачу — поставь лайк:
Kleopatra772177.
2019-08-04 16:58
IdeaFilm, серия 19 в раздаче отсутствует!!
Писать комментарии на нашем торрент-трекере могут только зарегистрированные пользователи.
Зарегистрируйтесь или авторизируйтесь на сайте.