»
»

Скачать фильм Размер имеет значение (1-2 серии из 2) / BBC. Size Matters (Мэтью Томпсон) [2017, документальный, научно-популярный, DVB] VO - торрент

Бесплатные торренты всегда на нашем сайте и в хорошем качестве! Фильм доступен на нашем торрент-трекере бесплатно, без регистрации и смс.

Статистика раздачи
44 [ 759.0 KB/s ] ↑ 1.5 GB ↓ 3 [ 430.0 KB/s ]
Автор Сообщение
sanayra
2019-03-16 14:10
Размер имеет значение (1-2 серии из 2) / BBC. Size Matters
Размер имеет значение
Перевод: Профессиональный (одноголосый) / Видеофильм ТВ, cубтитры: отсутствуют
Формат: DVB, MPEG-TS, H.264, MP2
Страна: Великобритания
Режиссер: Мэтью Томпсон
Жанр: документальный, научно-популярный
Продолжительность: 2 x ~ 00:52:00
Год выпуска: 2017

Описание: Почему насекомые такие маленькие, а планеты такие большие? Почему Земля не размером с Юпитер, и почему люди не размером с мышей? Авторы расскажут, почему размер имеет значение, когда мы говорим о нашей вселенной.

Видео: 720x576@1046x576 (16:9), 25,000 fps, AVC (х264), Main@L3, 1877 Кбит/сек, ~ 0.181 bit/pixel
Аудио: Русский 48 kHz, MPEG Layer 2, 2 ch, ~192.00 kbps avg
(тех. данные обоих серий идентичны)

Доп. информация:
Спасибо автору релиза kyba62

MI
Complete name : F:\Наладки\SD-фильмы\01. Больше лучше.ts
Format : MPEG-TS
File size : 811 MiB
Duration : 52 min 0 s
Overall bit rate mode : Variable
Overall bit rate : 2 179 kb/s

Video
ID : 401 (0x191)
Menu ID : 2608 (0xA30)
Format : AVC
Format/Info : Advanced Video Codec
Format profile : Main@L3
Format settings : CABAC / 4 Ref Frames
Format settings, CABAC : Yes
Format settings, ReFrames : 4 frames
Format settings, GOP : M=4, N=28
Codec ID : 27
Duration : 52 min 0 s
Bit rate : 1 877 kb/s
Width : 720 pixels
Height : 576 pixels
Display aspect ratio : 16:9
Frame rate : 25.000 FPS
Standard : Component
Color space : YUV
Chroma subsampling : 4:2:0
Bit depth : 8 bits
Scan type : Interlaced
Scan type, store method : Separated fields
Scan order : Top Field First
Bits/(Pixel*Frame) : 0.181
Stream size : 698 MiB (86%)
Color range : Limited
Color primaries : BT.601 PAL
Transfer characteristics : BT.470 System B, BT.470 System G
Matrix coefficients : BT.470 System B, BT.470 System G

Audio
ID : 402 (0x192)
Menu ID : 2608 (0xA30)
Format : MPEG Audio
Format version : Version 1
Format profile : Layer 2
Codec ID : 3
Duration : 52 min 0 s
Bit rate mode : Constant
Bit rate : 192 kb/s
Channel(s) : 2 channels
Sampling rate : 48.0 kHz
Frame rate : 41.667 FPS (1152 SPF)
Compression mode : Lossy
Delay relative to video : -40 ms
Stream size : 71.4 MiB (9%)
Language : Russian


Содержание
01. Больше лучше? / Is Bigger Better?
02. Есть ли в малом своя прелесть? / Is smail Beautiful?


Информация о торренте:
Размер содержимого: 1.5 GB
Скачан: 340 раз
Статус: Проверен
Зарегистрирован на трекере: 2019-03-16 13:10
Скачать торрент


Поддержи раздачу — поставь лайк:
Писать комментарии на нашем торрент-трекере могут только зарегистрированные пользователи.
Зарегистрируйтесь или авторизируйтесь на сайте.