»
»

Скачать сериал Враг внутри, 1 сезон 1-13 серии из 13 / The Enemy Within [TVShows] (Марисоль Торрес, Чарльз Бисон, Ричард Дж. Льюис) [2019, Драма, триллер, шпионаж, WEB-DLRip 1080p, P] - торрент

Скачать бесплатный торрент сериал. Сериал доступен на нашем торрент-трекере бесплатно, без регистрации и смс.

Статистика раздачи
23 [ 1.0 MB/s ] ↑ 40.7 GB ↓ 2 [ 6.5 MB/s ]
Автор Сообщение
Lacky1907
2019-03-16 12:18
Враг внутри / The Enemy Within
Враг внутри, 1 сезон 1-13 серии из 13 / The Enemy Within [TVShows]
Перевод: Профессиональный (многоголосый закадровый) TVShows Субтитры: английские
Формат: WEB-DLRip 1080p, MKV, H.264, AC3
Страна: США, NBC Universal Studios, 82nd West
Режиссер: Марисоль Торрес, Чарльз Бисон, Ричард Дж. Льюис
Жанр: Драма, триллер, шпионаж
Всего серий: 13
Продолжительность: 13 х ~ 00:43:00
Год выпуска: 2019

В ролях: Джеймс Карпинелло, Моррис Честнат, Кассандра Фриман, Раза Джеффри, Ной Бин, Дженнифер Карпентер, Келли Гарнер, Корал Пенья, Ноа Миллс, Павел Шайда

Описание: В данном шпионском триллере полном динамики сюжет сконцентрируется на Эрике Шепард, умнейшей былой представительнице ЦРУ и самой знаменитой изменщице в летописи Америки, заключенной в тюрьму жесткого режима. Несмотря на то, что агент ФБР Уилл Китон и был категорически не согласен, он был вынужден привлечь Шепард, чтоб она посодействовала словить ее хорошего приятеля и одновременно необычайно небезопасного и неуловимого правонарушителя. Китону очень тяжело даётся доверие человеку, который сломал его жизнь. Невзирая на то, что в основе действий Шепард и Китона лежат различные мотивы, они вдвоем отлично понимают, что для того, чтоб словить шпиона… необходимо им быть.

[imdb=http://www.imdb.com/title/tt8390342/]


Видео: 1920x1080 (16:9), 23,976 fps, AVC (х264), High@L4, ~9500 kbps avg, 0.191 bit/pixel
Аудио 1#: Rus: 48 kHz, AC3, 3/2 (L,C,R,l,r) + LFE ch, ~384 kbps
Аудио 2#: Eng: 48 Khz, E-AC-3, 3/2 (L,C,R,l,r) + LFE ch, ~640 kbps

Релиз без рекламы

Перевод:



MediaInfo

Общее
Уникальный идентификатор : 166102544441093566173185125238017679613 (0x7CF62FB913B84728502DB4B1CC54E0FD)
Полное имя : E:\Сериалы\Прочее\The.Enemy.Within.S01.1080p.TVShows\The.Enemy.Within.S01E01.1080p.TVShows.mkv
Формат : Matroska
Версия формата : Version 4
Размер файла : 3,21 Гбайт
Продолжительность : 44 м. 4 с.
Общий поток : 10,4 Мбит/сек
Дата кодирования : UTC 2019-04-10 08:53:56
Программа кодирования : mkvmerge v31.0.0 ('Dolores In A Shoestand') 64-bit
Библиотека кодирования : libebml v1.3.6 + libmatroska v1.4.9

Видео
Идентификатор : 1
Формат : AVC
Формат/Информация : Advanced Video Codec
Профиль формата : High@L4
Настройки формата : CABAC / 4 Ref Frames
Параметр CABAC формата : Да
Параметр RefFrames формата : 4 кадра
Идентификатор кодека : V_MPEG4/ISO/AVC
Продолжительность : 43 м. 42 с.
Вид битрейта : Постоянный
Битрейт : 9486 Кбит/сек
Номинальный битрейт : 10000 Кбит/сек
Ширина : 1920 пикселей
Высота : 1080 пикселей
Соотношение сторон : 16:9
Режим частоты кадров : Постоянный
Частота кадров : 23,976 (24000/1001) кадра/сек
Цветовое пространство : YUV
Субдискретизация насыщенности : 4:2:0
Битовая глубина : 8 бит
Тип развёртки : Прогрессивная
Бит/(Пиксели*Кадры) : 0.191
Размер потока : 2,90 Гбайт (90%)
Default : Да
Forced : Нет
Цветовой диапазон : Limited
Основные цвета : BT.709
Характеристики трансфера : BT.709
Коэффициенты матрицы : BT.709

Аудио #1
Идентификатор : 2
Формат : AC-3
Формат/Информация : Audio Coding 3
Коммерческое название : Dolby Digital
Идентификатор кодека : A_AC3
Продолжительность : 44 м. 4 с.
Вид битрейта : Постоянный
Битрейт : 384 Кбит/сек
Каналы : 6 каналов
Channel layout : L R C LFE Ls Rs
Частота : 48,0 КГц
Частота кадров : 31,250 кадров/сек (1536 SPF)
Битовая глубина : 16 бит
Метод сжатия : С потерями
Задержка видео : 500 мс.
Размер потока : 121 Мбайт (4%)
Заголовок : TVShows
Язык : Russian
ServiceKind/String : Complete Main
Default : Да
Forced : Да

Аудио #2
Идентификатор : 3
Формат : E-AC-3
Формат/Информация : Enhanced AC-3
Коммерческое название : Dolby Digital Plus
Идентификатор кодека : A_EAC3
Продолжительность : 43 м. 42 с.
Вид битрейта : Постоянный
Битрейт : 640 Кбит/сек
Каналы : 6 каналов
Channel layout : L R C LFE Ls Rs
Частота : 48,0 КГц
Частота кадров : 31,250 кадров/сек (1536 SPF)
Метод сжатия : С потерями
Размер потока : 200 Мбайт (6%)
Заголовок : Original
Язык : English
ServiceKind/String : Complete Main
Default : Нет
Forced : Нет

Текст
Идентификатор : 4
Формат : UTF-8
Идентификатор кодека : S_TEXT/UTF8
Идентификатор кодека/Информация : UTF-8 Plain Text
Продолжительность : 43 м. 8 с.
Битрейт : 72 бит/сек
ElementCount : 820
Размер потока : 22,8 Кбайт (0%)
Заголовок : English
Язык : English
Default : Нет
Forced : Нет



Информация о торренте:
Размер содержимого: 40.7 GB
Скачан: 150 раз
Статус: Проверен
Зарегистрирован на трекере: 2019-06-12 18:08
Скачать торрент


Поддержи раздачу — поставь лайк:
Kleopatra772177.
2019-06-12 18:05
Писать комментарии на нашем торрент-трекере могут только зарегистрированные пользователи.
Зарегистрируйтесь или авторизируйтесь на сайте.