»
»

Скачать фильм Тройная граница / Triple Frontier (Джей Си Чендор) [2019, боевик, триллер, драма, криминал, приключения, WEBDLRip-AVC] DUB - торрент

Нажмите синюю кнопку, чтобы cкачать бесплатно через торрент фильм. Фильм доступен на нашем торрент-трекере бесплатно, без регистрации и смс.

Статистика раздачи
95 [ 4.6 MB/s ] ↑ 2.2 GB ↓ 9 [ 7.7 MB/s ]
Автор Сообщение
monstryu
2019-03-13 20:00
Тройная граница / Triple Frontier
Тройная граница / Triple Frontier
Перевод: Профессиональный (полное дублирование) Невафильм, субтитры: отсутствуют
Формат: WEBDLRip-AVC, MKV, H.264, AC3
Страна: США
Режиссер: Джей Си Чендор
Жанр: боевик, триллер, драма, криминал, приключения
Продолжительность: 02:05:55
Год выпуска: 2019
В ролях: Бен Аффлек, Чарли Ханнэм, Адриа Архона, Педро Паскаль, Оскар Айзек, Гаррет Хедлунд, Шейла Ванд, Рейнальдо Гальегос, Кристин Хорн, Шон МакБрайд

Описание: На стыке трех государств Южной Америки - Аргентины, Бразилии и Парагвая - проходит крупный наркотрафик, с которым долгие годы безуспешно борются силовики этих стран. Однажды пятеро служителей закона придумывают гениальный и одновременно смертельно опасный план по нанесению сильного ущерба наркоторговцам. Они решают ограбить крупнейшего из них, в доме которого хранится более 70 миллионов долларов наличными. Потеря такого состояния подорвет нелегальный бизнес. К тому же эти деньги не помешают и самим оперативникам, которые за годы службы пережили немало неприятностей...

[imdb=https://www.imdb.com/title/tt1488606/?ref_=plg_rt_1]

Видео: 1024x480 (2.133), 24 fps, AVC MPEG4 (x264), High@L4.1, ~2090 kbps avg, 0.177 bit/pixel
Аудио: 48 kHz, AC3 Dolby Digital, 3/2 (L,C,R,l,r) + LFE ch, ~384 kbps
MI
General
Unique ID : 74211067831318329191396901579396774029 (0x37D48822596C2EBEDCE1D44707F8788D)
Complete name : C:\Users\123\Desktop\Triple.Frontier.2019.1080p.WEB-DLRip-AVC_[tfile.ru].mkv
Format : Matroska
Format version : Version 4 / Version 2
File size : 2.18 GiB
Duration : 2h 5mn
Overall bit rate mode : Constant
Overall bit rate : 2 474 Kbps
Movie name : Тройная граница (2019)
Encoded date : UTC 2019-03-13 09:23:04
Writing application : Lavf56.36.100
Writing library : Lavf56.36.100

Video
ID : 2
Format : AVC
Format/Info : Advanced Video Codec
Format profile : High@L4.1
Format settings, CABAC : Yes
Format settings, ReFrames : 2 frames
Format settings, GOP : M=1, N=25
Codec ID : V_MPEG4/ISO/AVC
Duration : 2h 5mn
Bit rate mode : Constant
Bit rate : 2 090 Kbps
Width : 1 024 pixels
Height : 480 pixels
Display aspect ratio : 2.133
Frame rate mode : Constant
Frame rate : 24.000 fps
Color space : YUV
Chroma subsampling : 4:2:0
Bit depth : 8 bits
Scan type : Progressive
Bits/(Pixel*Frame) : 0.177
Stream size : 1.79 GiB (82%)
Title : Triple.Frontier.2019.1080p.WEB-DL.DUB.EniaHD
Language : English
Default : Yes
Forced : No
DURATION : 02:05:52.459000000
NUMBER_OF_FRAMES : 181259
NUMBER_OF_BYTES : 4146580292
_STATISTICS_WRITING_APP : mkvmerge v32.0.0 ('Astral Progressions') 32-bit
_STATISTICS_WRITING_DATE_UTC : 2019-03-13 09:23:04
_STATISTICS_TAGS : BPS DURATION NUMBER_OF_FRAMES NUMBER_OF_BYTES

Audio
ID : 1
Format : AC-3
Format/Info : Audio Coding 3
Mode extension : CM (complete main)
Format settings, Endianness : Big
Codec ID : A_AC3
Duration : 2h 5mn
Bit rate mode : Constant
Bit rate : 384 Kbps
Channel(s) : 6 channels
Channel positions : Front: L C R, Side: L R, LFE
Sampling rate : 48.0 KHz
Bit depth : 32 bits
Compression mode : Lossy
Stream size : 346 MiB (16%)
Title : AC3 5.1 @ 384 kbps - DUB, Невафильм
Language : Russian
Default : Yes
Forced : No
DURATION : 02:05:52.544000000
NUMBER_OF_FRAMES : 236017
NUMBER_OF_BYTES : 362522112
_STATISTICS_WRITING_APP : mkvmerge v32.0.0 ('Astral Progressions') 32-bit
_STATISTICS_WRITING_DATE_UTC : 2019-03-13 09:23:04
_STATISTICS_TAGS : BPS DURATION NUMBER_OF_FRAMES NUMBER_OF_BYTES

Информация о торренте:
Размер содержимого: 2.2 GB
Скачан: 864 раза
Статус: Временная раздача
Зарегистрирован на трекере: 2019-03-13 19:00
Скачать торрент


Поддержи раздачу — поставь лайк:

spmak
2019-03-13 19:15
Давно ждал, спасибо
AR74NI
2019-03-13 19:17
Спасибо.Актёрский состав впечатляет. :thanks: :nice:
aleklitva
2019-03-14 14:18
Спасибо ! Живенький такой боевичёк ! На разок вполне. :daaaa:
mahmuletto
2019-03-14 19:15
Спасибо.
Cooperis
2019-03-18 11:31
средничок 5/10 балов.
Писать комментарии на нашем торрент-трекере могут только зарегистрированные пользователи.
Зарегистрируйтесь или авторизируйтесь на сайте.